Up and Running with MATLAB 2013

Download Now


Up and Running with MATLAB (2013)
MP4 | AVC 270kbps | English | 960x540 | 15fps | 1h 30mins | AAC stereo 128kbps | 208 MB
Genre: Video Training

MATLAB is one of the most popular programming languages today for engineers and scientists, and with good reason-it allows data analysts to work efficiently with large amounts of data. Let author Patrick Royal show you how to harness the MATLAB tools and gain a level of fluency with the language. He shows how to work with the core syntax, which is significantly different than other programming languages; create scripts and functions; debug your program; and finally, work with Descriptions, annotations, and images. The final chapter covers external toolboxes-extensions and libraries that automate, complement, and enhance existing MATLAB functionality.

Introduction 3m 57s
Welcome 1m 3s
What you need to know 1m 51s
Using the exercise files 1m 3s

1. General Concepts 16m 51s
Installing MATLAB 2m 8s
Understanding the MATLAB interface 3m 46s
Working with MATLAB variables 3m 44s
Everything is a matrix 2m 41s
Understanding data structures 4m 32s

2. Core MATLAB Syntax 16m 31s
Basic commands 3m 32s
Using built-in functions and variables 2m 12s
Working with matrix and scalar operations 3m 26s
Control flow 3m 42s
Understanding data types 3m 39s

3. Programming in MATLAB 22m 43s
How are program files stored? 2m 12s
Viewing and editing programs 2m 38s
Creating scripts 3m 31s
Creating functions 3m 15s
Debugging 2m 58s
Performance considerations 4m 36s
Adding program documentation 3m 33s

4. Data Representations 18m 49s
Creating basic Descriptions 2m 59s
Adding annotations 4m 28s
Working with images 3m 5s
Creating responsive programs 3m 25s
Editing variables manually 4m 52s

5. External Toolboxes 10m 43s
What are MATLAB toolboxes? 1m 23s
Statistics Toolbox 2m 40s
Symbolic Math Toolbox 3m 10s
Optimization Toolbox 3m 30s

Conclusion 51s
Where to go from here 51sFormat : MPEG-4
Format profile : Base Media / Version 2
Codec ID : mp42
File size : 14.0 MiB
Duration : 4mn 52s
Overall bit rate : 401 Kbps
Encoded date : UTC 2013-06-07 01:15:16
Tagged date : UTC 2013-06-07 01:15:16
Writing library : Apple QuickTime
Copyright : lynda.com
Video #2
ID : 2
Format : AVC
Format/Info : Advanced Video Codec
Format profile : [email protected]
Format settings, CABAC : Yes
Format settings, ReFrames : 3 frames
Codec ID : avc1
Codec ID/Info : Advanced Video Coding
Duration : 4mn 52s
Bit rate mode : Variable
Bit rate : 270 Kbps
Width : 960 pixels
Height : 540 pixels
Display aspect ratio : 16:9
Frame rate mode : Constant
Frame rate : 15.000 fps
Resolution : 24 bits
Colorimetry : 4:2:0
Scan type : Progressive
Bits/(Pixel*Frame) : 0.035
Stream size : 9.39 MiB (67%)
Encoded date : UTC 2013-06-07 01:15:16
Tagged date : UTC 2013-06-07 01:15:16
Audio #1
ID : 1
Format : AAC
Format/Info : Advanced Audio Codec
Format version : Version 4
Format profile : LC
Format settings, SBR : No
Format settings, PS : Yes
Codec ID : 40
Duration : 4mn 52s
Bit rate mode : Variable
Bit rate : 128 Kbps
Maximum bit rate : 131 Kbps
Channel(s) : 2 channels
Channel positions : Front: L R
Sampling rate : 48.0 KHz
Resolution : 16 bits
Stream size : 4.46 MiB (32%)
Encoded date : UTC 2013-06-07 01:15:16
Tagged date : UTC 2013-06-07 01:15:16




Buy Premium From My Links To Get Resumable Support & Max Speed & To Support Me

Links are Interchangeable - No Password
Direct Download

Tags: MATLAB, Running
Pthc Web Video Download | Parche Dx Crysis | Digital Tutors Cinema d Crack | Having Trouble While Logging In Public Notes Rk Rsdx | Meatloaf Guilty Pleasure Tour | Article Directory All Rights Reserved Hot Articles Rk Rsgzmzwbrjqfvsm | Gunday p Movie | Joy Kills Sorrow Taringa Rk Rsmm e Rk Rs J | Graphis Japanese | Torrent Skyrim Mod Sex Slave Mod | Amtlib Days Still Shows | Hanshika Sex Images | Alicia Keys Kontakt Demo Track Download | Psp Winning Eleven Iso Torrent Rk | Hustler Magazine | Mastering The American Accent With Audio Cds Free Download | Real Life Cam Sofia Und Roman | Ball Pool Hack Android No Survey | Autodesk ds Max X Torrnet | Michelle Romanis Nude Cam

Up and Running with MATLAB 2013 Download via Hotfile Rapidshare Fileserve Megaupload & FileSonic, Up and Running with MATLAB 2013 free torrent downloads included crack, serial, keygen.

Add comments

Your Name:
Your E-Mail:

Security Code:
Include security image CAPCHA.
update code
Insert Code: