Butcher Boys 2012 BRRip x264 AC3-MiLLENiUM

Download Now

http://i63.fastpic.ru/big/2014/0511/54/12e0df5746479c03e2507e2885bf6354.jpg
Butcher Boys 2012 BRRip x264 AC3-MiLLENiUM
| 1.55 GB
File: Butcher Boys 2012 BRRip x264 AC3-MiLLENiUM.mkv
Size: 1634391397 bytes (1.52 GiB), duration: 01:27:33, avg.bitrate: 2489 kb/s
Audio: ac3, 48000 Hz, 5:1 (eng)
Video: h264, yuv420p, 720x400, 23.98 fps(r)

iMDB iNFO

A gut-wrenching, non-stop roller coaster ride through the hellish underbelly of inner-city America. A birthday celebration at an upscale restaurant sets in motion events that bring Sissy, her brother, Mikey, and friends, Kenny and Barbie, face to face with the macabre world of the Boneboys. Inspired by Jonathan Swift's cannibalistic tale A Modest Proposal, the Boneboys are international predators who deal in human flesh - dead or alive. Their hunting grounds are the cities of the world.

Title:Butcher Boys
Year:2012
Rating:3.6
Genre:Action / Comedy / Horror / Thriller
Director:Duane Graves / Justin Meeks
Cast:Ali Faulkner / Johnny Walter / Derek Lee Nixon / Tory Tompkins / Gregory Kelly / Phillip Wolf / Matt Hensarling / Jon Clinkenbeard / Matt Beene / Katie Patterson / Jack Lee / Justin Meeks / Tom Byrne / Tank Turner / Mike Davis
http://i64.fastpic.ru/big/2014/0511/60/4b4a44b5ba47e47cb18f8bea0249a760.jpg

NFo Notes

http://www.tinydl.com/templates/css/dleimages/spoiler-plus.gif

Show or hide text

http://s29.postimg.org/u3v2hqhrr/jzyrsvtb.jpg

Butcher Boys 2012 BRRip x264 AC3-MiLLENiUM
General
Source...............: DL.1080p.BluRay.x264-GOREHOUNDS [THANKS]
IMDb Information.... : http://www.imdb.com/title/tt1740476/
Sample Included......: yes
General
Complete name : Butcher Boys 2012 BRRip x264 AC3-MiLLENiUM.mkv
Format : Matroska
Format version : Version 2
File size : 1.52 GiB
Duration : 1h 27mn
Overall bit rate mode : Variable
Overall bit rate : 2 489 Kbps
Encoded date : UTC 2014-05-11 01:07:16
Writing application : mkvmerge v6.9.1 ('Blue Panther') 32bit built on Apr 18 2014 18:15:44
Writing library : libebml v1.3.0 + libmatroska v1.4.1
Video
ID : 1
Format : AVC
Format/Info : Advanced Video Codec
Format settings, CABAC : Yes
Format settings, ReFrames : 3 frames
Codec ID : V_MPEG4/ISO/AVC
Duration : 1h 27mn
Bit rate mode : Variable
Bit rate : 1 991 Kbps
Maximum bit rate : 40.0 Mbps
Width : 720 pixels
Height : 400 pixels
Display aspect ratio : 16:9
Frame rate mode : Constant
Frame rate : 23.976 fps
Color space : YUV
Chroma subsampling : 4:2:0
Bit depth : 8 bits
Scan type : Progressive
Bits/(Pixel*Frame) : 0.288
Stream size : 1.22 GiB (80%)
Writing library : x264 core 142 r2409 d6b4e63
Audio
ID : 2
Format : AC-3
Format/Info : Audio Coding 3
Mode extension : CM (complete main)
Format settings, Endianness : Big
Codec ID : A_AC3
Duration : 1h 27mn
Bit rate mode : Constant
Bit rate : 448 Kbps
Channel(s) : 6 channels
Channel positions : Front: L C R, Side: L R, LFE
Sampling rate : 48.0 KHz
Bit depth : 16 bits
Compression mode : Lossy
Stream size : 281 MiB (18%)
Language : English
Default : Yes
Forced : No
Description
A gut-wrenching, non-stop roller coaster ride through the hellish underbelly of inner-city America. A birthday celebration at an upscale restaurant sets in motion events that bring Sissy, her brother, Mikey, and friends, Kenny and Barbie, face to face with the macabre world of the Boneboys. Inspired by Jonathan Swift's cannibalistic tale A Modest Proposal, the Boneboys are international predators who deal in human flesh - dead or alive. Their hunting grounds are the cities of the world.
Screenshots
http://s22.postimg.org/plwjhgc5d/Butcher_Boys_2012_BRRip_x264_AC3_Mi_LLENi_UM_mkv_s.jpg
http://s22.postimg.org/h2d5jp3sx/Butcher_Boys_2012_BRRip_x264_AC3_Mi_LLENi_UM_mkv_s.jpg
http://s22.postimg.org/862dfrd6p/Butcher_Boys_2012_BRRip_x264_AC3_Mi_LLENi_UM_mkv_s.jpg
http://s22.postimg.org/phy4ngha9/Butcher_Boys_2012_BRRip_x264_AC3_Mi_LLENi_UM_mkv_s.jpg
http://s22.postimg.org/bzr8b654x/Butcher_Boys_2012_BRRip_x264_AC3_Mi_LLENi_UM_mkv_s.jpg




Download:


Buy Premium Account To Support Me & Get Maximum Speed & Save Time!


Direct Download

Tags: MiLLENiUM, Butcher
Password Storage Implementation In Vsphere | Sonaksi Sinha Fucking Images | Windows Single Language Iso | Universal Closeup Mockup Download | Public Notes Normal Version Login Rsadat Rk Rspi Nn Tlch | Gibt Es Ekb Installer Noch Rk Rsxb C | Pierre Woodman Maria Ryabushkina | Ultimix Free Download | After Effect Sport Theme | Spyhunter Email And Password | Kich Hoat Win Enterprie | Real Cam Benzeri Siteler | Fotokid Tumblr | Steven Raichlen Bbq Usa Book Torrent | Autocad Chomikuj | Kids Erotik Model | Having Trouble While Logging In Public Notes Rk Rsu Rk Rschavd | Osm Hack Mediafire Rk Rscabd | Fmagix Foto Su Cd Mx | Nude Mod De Resident Evil Revelations Jessica

Butcher Boys 2012 BRRip x264 AC3-MiLLENiUM Download via Hotfile Rapidshare Fileserve Megaupload & FileSonic, Butcher Boys 2012 BRRip x264 AC3-MiLLENiUM free torrent downloads included crack, serial, keygen.


Add comments

Your Name:
Your E-Mail:

Security Code:
Include security image CAPCHA.
update code
Insert Code: