Dracula Untold (2014) 720p

Download Now


************************************************************
Dracula Untold (2014) 720p
File Size: 4.37 GiB
************************************************************


Dracula Untold (2014) 720p

INFO:


General
Complete name                  : vedett-dra-720p.mkv
Format                         : Matroska
Format version                 : Version 4 / Version 2
File size                      : 4.37 GiB
Duration                       : 1h 32mn
Overall bit rate               : 6 793 Kbps
Encoded date                   : UTC 2015-01-16 23:48:14
Writing application            : mkvmerge v7.5.0 ('Glass Culture') 64bit built on Jan  4 2015 16:48:44
Writing library                : libebml v1.3.1 + libmatroska v1.4.2

Video
ID                             : 1
Format                         : AVC
Format/Info                    : Advanced Video Codec
Format profile                 : [email protected]
Format settings, CABAC         : Yes
Format settings, ReFrames      : 5 frames
Codec ID                       : V_MPEG4/ISO/AVC
Duration                       : 1h 32mn
Bit rate                       : 5 283 Kbps
Width                          : 1 280 pixels
Height                         : 536 pixels
Display aspect ratio           : 2.40:1
Frame rate mode                : Constant
Frame rate                     : 23.976 fps
Color space                    : YUV
Chroma subsampling             : 4:2:0
Bit depth                      : 8 bits
Scan type                      : Progressive
Bits/(Pixel*Frame)             : 0.321
Stream size                    : 3.31 GiB (76%)
Writing library                : x264 core 144 r2525 40bb568
Language                       : English
Default                        : Yes
Forced                         : No

Audio
ID                             : 2
Format                         : DTS
Format/Info                    : Digital Theater Systems
Mode                           : 16
Format settings, Endianness    : Big
Codec ID                       : A_DTS
Duration                       : 1h 32mn
Bit rate mode                  : Constant
Bit rate                       : 1 509 Kbps
Channel(s)                     : 6 channels
Channel positions              : Front: L C R, Side: L R, LFE
Sampling rate                  : 48.0 KHz
Bit depth                      : 24 bits
Compression mode               : Lossy
Stream size                    : 994 MiB (22%)
Language                       : English
Default                        : Yes
Forced                         : No


iMDB:


http://www.imdb.com/title/tt0829150/


Dracula Untold (2014) 720p

Single Extraction | No Password | Interchangeable Links: | Working 100% |


http://uploaded.net/file/eksgeljw/VeDrAc720p.part1.rar
http://uploaded.net/file/7y29coxx/VeDrAc720p.part2.rar
http://uploaded.net/file/ev26s1bc/VeDrAc720p.part3.rar
http://uploaded.net/file/upmnuowb/VeDrAc720p.part4.rar
http://uploaded.net/file/4bewjlv0/VeDrAc720p.part5.rar

http://rapidgator.net/file/f3f7eb91f96a64cadb9e48ad319d1802/VeDrAc720p.part1.rar.html
http://rapidgator.net/file/238eb4e2aa5ec0e0afa7cc8be014b25f/VeDrAc720p.part2.rar.html
http://rapidgator.net/file/e99759925f21ca31b84cbad221ce6614/VeDrAc720p.part3.rar.html
http://rapidgator.net/file/369dd4948fe36656e4ec107cc3b1eb30/VeDrAc720p.part4.rar.html
http://rapidgator.net/file/e2f7ed9fbe25c1a74e86dc8196bb950c/VeDrAc720p.part5.rar.html

http://k2s.cc/file/88a9135cf3f9f/VeDrAc720p.part1.rar
http://k2s.cc/file/86c6fe870fc8f/VeDrAc720p.part2.rar
http://k2s.cc/file/28f82c53c989f/VeDrAc720p.part3.rar
http://k2s.cc/file/c0478a877b178/VeDrAc720p.part4.rar
http://k2s.cc/file/3805a02db09d4/VeDrAc720p.part5.rar

http://www.nitroflare.com/view/9AA5BEBFE489040
http://www.nitroflare.com/view/896553E4FEBD9B8
http://www.nitroflare.com/view/6F4CB3817A3A436
http://www.nitroflare.com/view/8A94F76C62F78ED
http://www.nitroflare.com/view/730F6DF9AD8FD8F


DOWNLOAD SINGLE LINKS:


http://rapidgator.net/file/8972ba5e096d43775a2ec4a836da3f97/vedett-dra-720p.mkv.html
http://uploaded.net/file/swhh3i9n/vedett-dra-720p.mkv
http://k2s.cc/file/24b308bd8a586/vedett-dra-720p.mkv


Dracula Untold (2014) 720p

DON'T FORGET TO SAY THANKS IF YOU LIKE MY POST !
sharing is caring, happy downloading..
Direct Download

Tags: Dracula, Untold
Sexy Tiny Preteen Girlz Taboo | Wwe Game Wap Ocean | Gross Beat For Mac Torrent | Alguien Tiene El Edius Portable | Free Chill Sound Pack | Tamil Villageauntysex | Diary Of Love Free Movie | Brookemarks Hack | Christian Music Video | New Free Gujrati Sex Video | Sketchup Serial | Windows Enterprise Product Key Rodoved Tags Gibson | Toothless And Astrid Sex Games | Public Notes Normal Version Login Rsadalvccz Rk Rsucxwsx | Miss Model Alli | Red Tube Virgin Teen Hd Rk Rswdtaek | Alyssa Hart Blows Brother | Waveform Recordings Funk Tech Wav Magnetrixx | Fitzpatricks Color Atlas And Synopsis Of Clinical Dermatology th Edition | Futanaria Videos

Dracula Untold (2014) 720p Download via Hotfile Rapidshare Fileserve Megaupload & FileSonic, Dracula Untold (2014) 720p free torrent downloads included crack, serial, keygen.


Add comments

Your Name:
Your E-Mail:

Security Code:
Include security image CAPCHA.
update code
Insert Code: