John Wick (2014)

Download Now


John Wick (2014) BRRip XviD AC3 GTPD
File Size: 701 MiB


John Wick (2014)

INFO:


General
Complete name                  : John Wick [2014] EngBrRipXvidAc3-GTPD.avi
Format                         : AVI
Format/Info                    : Audio Video Interleave
File size                      : 701 MiB
Duration                       : 1h 41mn
Overall bit rate               : 969 Kbps

Video
ID                             : 0
Format                         : MPEG-4 Visual
Format profile                 : Advanced [email protected]
Format settings, BVOP          : 2
Format settings, QPel          : No
Format settings, GMC           : No warppoints
Format settings, Matrix        : Custom
Codec ID                       : XVID
Codec ID/Hint                  : XviD
Duration                       : 1h 41mn
Bit rate                       : 800 Kbps
Width                          : 752 pixels
Height                         : 320 pixels
Display aspect ratio           : 2.35:1
Frame rate                     : 23.976 fps
Color space                    : YUV
Chroma subsampling             : 4:2:0
Bit depth                      : 8 bits
Scan type                      : Progressive
Compression mode               : Lossy
Bits/(Pixel*Frame)             : 0.139
Stream size                    : 579 MiB (83%)
Writing library                : XviD 64

Audio
ID                             : 1
Format                         : AC-3
Format/Info                    : Audio Coding 3
Mode extension                 : CM (complete main)
Format settings, Endianness    : Big
Codec ID                       : 2000
Duration                       : 1h 41mn
Source duration                : 1h 41mn
Bit rate mode                  : Constant
Bit rate                       : 160 Kbps
Channel(s)                     : 6 channels
Channel positions              : Front: L C R, Side: L R, LFE
Sampling rate                  : 48.0 KHz
Bit depth                      : 16 bits
Compression mode               : Lossy
Stream size                    : 116 MiB (17%)
Alignment                      : Aligned on interleaves
Interleave, duration           : 42 ms (1.00 video frame)


iMDB:


http://www.imdb.com/title/tt2911666/


John Wick (2014)

Single Extraction | No Password | Interchangeable Links: | Working 100% |


http://rapidgator.net/file/abb08401004d1ed824d47fed44ef15f0/JohnW.BRRip.GTPD.rar.html
http://uploaded.net/file/cekhr0tz/JohnW.BRRip.GTPD.rar
http://www.filefactory.com/file/7iilzjqgf30x/JohnW.BRRip.GTPD.rar
http://k2s.cc/file/0fe70ba998da9/JohnW.BRRip.GTPD.rar
http://www.nitroflare.com/view/13A697804CDC2F5

sharing is caring, happy downloading..
Direct Download

John Wick (2014) Download via Hotfile Rapidshare Fileserve Megaupload & FileSonic, John Wick (2014) free torrent downloads included crack, serial, keygen.


#1 | Author: Jamie | 15 March 2015 00:54
Smart thnkiing - a clever way of looking at it.

Add comments

Your Name:
Your E-Mail:

Security Code:
Include security image CAPCHA.
update code
Insert Code: