The Hobbit An Unexpected Journey 2013 EXTENDED 720p BRRip x264 DTS ReLeNTLesS

Download Now

The Hobbit An Unexpected Journey 2013 EXTENDED 720p BRRip x264 DTS ReLeNTLesS
The Hobbit An Unexpected Journey 2013 EXTENDED 720p BRRip x264 DTS ReLeNTLesS
| 6.06 GB
File: The.Hobbit.An.Unexpected.Journey.2013.EXTENDED.720p.BRRip.x264.DTS.ReLeNTLesS.mkv
Size: 6447690755 bytes (6.00 GiB), duration: 03:02:31, avg.bitrate: 4710 kb/s
Audio: dts, 48000 Hz, 5:1 (eng)
Video: h264, yuv420p, 1280x528, 23.98 fps(r) (eng)

Bilbo Baggins is swept into a quest to reclaim the lost Dwarf Kingdom of Erebor from the fearsome dragon Smaug. Approached out of the blue by the wizard Gandalf the Grey, Bilbo finds himself joining a company of thirteen dwarves led by the legendary warrior, Thorin Oakenshield. Their journey will take them into the Wild; through treacherous lands swarming with Goblins and Orcs, deadly Wargs and Giant Spiders, Shapeshifters and Sorcerers. Although their goal lies to the East and the wastelands of the Lonely Mountain first they must escape the goblin tunnels, where Bilbo meets the creature that will change his life forever ... Gollum. Here, alone with Gollum, on the shores of an underground lake, the unassuming Bilbo Baggins not only discovers depths of guile and courage that surprise even him, he also gains possession of Gollum's "precious" ring that holds unexpected and useful qualities ... A simple, gold ring that is tied to the fate of all Middle-earth in ways Bilbo cannot begin to ...

Title:De Hobbit: Een onverwachte reis
Genre:Adventure / Fantasy
Director:Peter Jackson
Cast:Ian McKellen / Martin Freeman / Richard Armitage / Ken Stott / Graham McTavish / William Kircher / James Nesbitt / Stephen Hunter / Dean O'Gorman / Aidan Turner / John Callen / Peter Hambleton / Jed Brophy / Mark Hadlow / Adam Brown
Complete name : The.Hobbit.An.Unexpected.Journey.2013.EXTENDED.720p.BRRip.x264.DTS.ReLeNTLesS.mkv
Format : Matroska
Format version : Version 2
File size : 6.00 GiB
Duration : 3h 2mn
Overall bit rate : 4 710 Kbps
Encoded date : UTC 2013-12-24 15:58:19
Writing application : mkvmerge v6.5.0 ('Isn't she lovely') built on Oct 20 2013 12:50:05
Writing library : libebml v1.3.0 + libmatroska v1.4.1
ID : 1
Format : AVC
Format/Info : Advanced Video Codec
Format profile : [emailç?Œrotected]
Format settings, CABAC : Yes
Format settings, ReFrames : 4 frames
Duration : 3h 2mn
Bit rate : 3 199 Kbps
Width : 1 280 pixels
Height : 528 pixels
Display aspect ratio : 2.40:1
Frame rate : 23.976 fps
Color space : YUV
Chroma subsampling : 4:2:0
Bit depth : 8 bits
Scan type : Progressive
Bits/(Pixel*Frame) : 0.197
Stream size : 3.96 GiB (66%)
Writing library : x264 core 140 r2377 1ca7bb9
Language : English
Default : Yes
Forced : No
ID : 2
Format : DTS
Format/Info : Digital Theater Systems
Codec ID : A_DTS
Duration : 3h 2mn
Bit rate mode : Constant
Bit rate : 1 510 Kbps
Channel(s) : 6 channels
Channel positions : Front: L C R, Side: L R, LFE
Sampling rate : 48.0 KHz
Bit depth : 24 bits
Compression mode : Lossy
Stream size : 1.92 GiB (32%)
Language : English
Default : Yes
Forced : No
Source : PHD Thanks
Sample Included : Yes
A younger and more reluctant Hobbit, Bilbo Baggins, sets out on an "unexpected journey" to the Lonely Mountain with a spirited group of Dwarves to reclaim their stolen mountain home from a dragon named Smaug.
Director: Peter Jackson
Writers: Fran Walsh (screenplay), Philippa Boyens (screenplay)
Stars: Martin Freeman, Ian McKellen, Richard Armitage

I recommends Buy premimum account for High speed+parallel downloads!

Direct Download

Tags: ReLeNTLesS, EXTENDED, Hobbit, Unexpected
Avid Media Composer Mac | Maddie Suicide Girl Big Red Book | Jimmy Giuffre shared | Medstudy Neurology | Iatkos M Torrent | De At Ch And Ea Stern Europe Meta | Siberian Mouse Masha Vk Com | Porn Pics Anaglyph | Mandingo Massacre Videos | Velamma Episoses In Tqmil | Centoxcento Nudevista | Nymphmanic Movie Trailer | Art Of Caricature Mediafire | Normal Version Public Notes Terms Of Service Rk Rs Ellfq | Serial Number Movie Platinum | Aomei Backupper Technician Winpe X Bootable Cd Usb | Numeros De Serie Para Nero | Titanium Inter Security Crack Keygen Pirate Bay Rk Rsnokylgcc Aixuz c | Dawnguard Skyrim Porn Pics Download | Article Directory All Rights Reserved Post Article Comments

The Hobbit An Unexpected Journey 2013 EXTENDED 720p BRRip x264 DTS ReLeNTLesS Download via Hotfile Rapidshare Fileserve Megaupload & FileSonic, The Hobbit An Unexpected Journey 2013 EXTENDED 720p BRRip x264 DTS ReLeNTLesS free torrent downloads included crack, serial, keygen.

Add comments

Your Name:
Your E-Mail:

Security Code:
Include security image CAPCHA.
update code
Insert Code: