Paradise 2013 DVDrip Xvid Ac3-MiLLENiUM

Download Now


Paradise 2013 DVDrip Xvid Ac3-MiLLENiUM
Paradise 2013 DVDrip Xvid Ac3-MiLLENiUM
| 1.3 GB
File: Paradise 2013 DVDrip Xvid Ac3-MiLLENiUM.avi
Size: 1358044832 bytes (1.26 GiB), duration: 01:26:34, avg.bitrate: 2092 kb/s
Audio: ac3, 48000 Hz, 5:1, 384 kb/s
Video: mpeg4, yuv420p, 720x384, 23.98 fps(r)



Lamb Mannerheim's faith is shaken after a plane crash burns two-thirds of her body, and she shocks her small-town congregation when she publicly renounces God. As she sets out to experience the worldly pleasures of Las Vegas, she meets a bartender and a cynical lounge singer who help her check off as many dirty deeds as possible from her Napkin of Sin bucket list.

Title:Paradise
Year:2013
Rating:4.5
Genre:Comedy / Drama
Director:Diablo Cody
Cast:Julianne Hough / Nick Offerman / Holly Hunter / Russell Brand / Octavia Spencer / Alyshia Ochse / Kathleen Rose Perkins / Danny Flaherty / Azure Parsons / Iliza Shlesinger / Ciera Payton / Maz Jobrani / Christopher Berry / Phil Austin / Kate Adair

Paradise 2013 DVDrip Xvid Ac3-MiLLENiUM

NFo
General
Complete name : Paradise 2013 DVDrip Xvid Ac3-MiLLENiUM.avi
Source : DVDR [thanks]
Format : AVI
Format/Info : Audio Video Interleave
File size : 1.26 GiB
Duration : 1h 26mn
Overall bit rate : 2 091 Kbps
Video
ID : 0
Format : MPEG-4 Visual
Format profile : Advanced [email protected]
Format settings, BVOP : 2
Format settings, QPel : No
Format settings, GMC : No warppoints
Format settings, Matrix : Default (MPEG)
Codec ID : XVID
Codec ID/Hint : XviD
Duration : 1h 26mn
Bit rate : 1 700 Kbps
Width : 720 pixels
Height : 384 pixels
Display aspect ratio : 1.85:1
Frame rate : 23.976 fps
Color space : YUV
Chroma subsampling : 4:2:0
Bit depth : 8 bits
Scan type : Progressive
Compression mode : Lossy
Bits/(Pixel*Frame) : 0.256
Stream size : 1.03 GiB (81%)
Writing library : XviD 1.2.1 (UTC 2008-12-04)
Audio
ID : 1
Format : AC-3
Format/Info : Audio Coding 3
Mode extension : CM (complete main)
Format settings, Endianness : Big
Codec ID : 2000
Duration : 1h 26mn
Bit rate mode : Constant
Bit rate : 384 Kbps
Channel count : 6 channels
Channel positions : Front: L C R, Side: L R, LFE
Sampling rate : 48.0 KHz
Bit depth : 16 bits
Compression mode : Lossy
Stream size : 238 MiB (18%)
Alignment : Aligned on interleaves
Interleave, duration : 64 ms (1.53 video frames)
Interleave, preload duration : 192 ms
Title : VTS_01_1 T80 3_2ch 448Kbps DELAY 0ms_new
Screens :
Paradise 2013 DVDrip Xvid Ac3-MiLLENiUM
Paradise 2013 DVDrip Xvid Ac3-MiLLENiUM
Paradise 2013 DVDrip Xvid Ac3-MiLLENiUM
Paradise 2013 DVDrip Xvid Ac3-MiLLENiUM
Paradise 2013 DVDrip Xvid Ac3-MiLLENiUM
Greetz :
Cm8, Fookas, TvN, BlackPearl, Tek And Maybe A Few More ;)
Respect to :
Fourlions, DiNGiE, NoIdEa, Echo and the rest of the crew :)

I recommends Buy premimum account for High speed+parallel downloads!

Direct Download

Tags: MiLLENiUM, DVDrip, Paradise
Gujrati Sexy Hd Video Download | Electrical Wiring Residential th Edition Answers | Th Monkey King Mkv Download Rk Rsvu | Plectrums Mock Up | Free Football Tournament Poster Psd | Chloe S Hunt | Anton Bivens Davis Calculus th Edition Solution | Rar Password Remover License Key | Modyen Shader Torrent | Andy Grammer Torrent | Chalk Effect Illustrator Photoshop | Electrical Cad Training Torrent | Semelike C Om Tag Maya And Lorry | Public Notes Normal Version Login Rsadaafgyguzkzi Rk Rs N | Product Version | Schnuggie Videos | Fandry Full Movies Hd Quality Download | Vistitle Edius | Metalwarriors Toolkit Activator Zip

Paradise 2013 DVDrip Xvid Ac3-MiLLENiUM Download via Hotfile Rapidshare Fileserve Megaupload & FileSonic, Paradise 2013 DVDrip Xvid Ac3-MiLLENiUM free torrent downloads included crack, serial, keygen.


Add comments

Your Name:
Your E-Mail:

Security Code:
Include security image CAPCHA.
update code
Insert Code: