The Adventurer The Curse of the Midas Box 2013

Download Now

http://i33.fastpic.ru/big/2014/0126/55/2d8bf689c4a89bde3dffda34665b2a55.jpg
The Adventurer: The Curse of the Midas Box (2013)
BDRip 480p | AVI / XVID, 1692 Kbps | 720x304 | 1h 39mn | 1.49 GB | English: AC3, 448 Kbps (6 ch)
Genre: Adventure | Family | Fantasy

Ancient mysteries. Powerful evil. And a fearless hero's quest through a fantastical realm of steam-powered wonders and sinister magic... In THE ADVENTURER: THE CURSE OF THE MIDAS BOX, seventeen-year-old Mariah Mundi's life is turned upside down when his parents vanish and his younger brother is kidnapped. Following a trail of clues to the darkly majestic Prince Regent Hotel, Mariah discovers a hidden realm of child-stealing monsters, deadly secrets and a long-lost artifact that grants limitless wealth - but also devastating supernatural power. With the fate of his world, and his family at stake, Mariah will risk everything to unravel the Curse of the Midas Box!

imdb

General
Complete name : The.Adventurer.The.Curse.of.the.Midas.Box.2013.480p.BRRip.XviD.AC3-EVO.avi
Format : AVI
Format/Info : Audio Video Interleave
File size : 1.49 GiB
Duration : 1h 39mn
Overall bit rate : 2 149 Kbps
Writing library : VirtualDub build 35491/release

Video
ID : 0
Format : MPEG-4 Visual
Format profile : Advanced Simple@L5
Format settings, BVOP : Yes
Format settings, QPel : No
Format settings, GMC : No warppoints
Format settings, Matrix : Default (H.263)
Codec ID : XVID
Codec ID/Hint : XviD
Duration : 1h 39mn
Bit rate : 1 692 Kbps
Width : 720 pixels
Height : 304 pixels
Display aspect ratio : 2.35:1
Frame rate : 23.976 fps
Color space : YUV
Chroma subsampling : 4:2:0
Bit depth : 8 bits
Scan type : Progressive
Compression mode : Lossy
Bits/(Pixel*Frame) : 0.322
Stream size : 1.17 GiB (79%)
Writing library : XviD 64

Audio
ID : 1
Format : AC-3
Format/Info : Audio Coding 3
Mode extension : CM (complete main)
Format settings, Endianness : Big
Codec ID : 2000
Duration : 1h 39mn
Bit rate mode : Constant
Bit rate : 448 Kbps
Channel count : 6 channels
Channel positions : Front: L C R, Side: L R, LFE
Sampling rate : 48.0 KHz
Bit depth : 16 bits
Compression mode : Lossy
Stream size : 318 MiB (21%)
Alignment : Aligned on interleaves
Interleave, duration : 42 ms (1.00 video frame)
Interleave, preload duration : 512 ms

screenshots:
http://i57.fastpic.ru/big/2014/0126/7f/931d31b0bec783b6a07782d81991fc7f.jpg
http://i58.fastpic.ru/big/2014/0126/bb/2226c2fc061d1627634a7f21b68c27bb.jpg
http://i60.fastpic.ru/big/2014/0126/fb/6df8376db40a92d28546205eaa0454fb.jpg


DOWNLOAD LINKS
Buy Premium From My Links To Get Resumable Support & Max Speed & To Support Me

RapidGator:
of0pu.The.Adventurer.The.Curse.of.the.Midas.Box.2013.480p.BRRip.XviD.AC3EVO.part1.rar.html
of0pu.The.Adventurer.The.Curse.of.the.Midas.Box.2013.480p.BRRip.XviD.AC3EVO.part1.rev.html
of0pu.The.Adventurer.The.Curse.of.the.Midas.Box.2013.480p.BRRip.XviD.AC3EVO.part2.rar.html
of0pu.The.Adventurer.The.Curse.of.the.Midas.Box.2013.480p.BRRip.XviD.AC3EVO.part3.rar.html
of0pu.The.Adventurer.The.Curse.of.the.Midas.Box.2013.480p.BRRip.XviD.AC3EVO.part4.rar.html

DizzCloud:
of0pu.The.Adventurer.The.Curse.of.the.Midas.Box.2013.480p.BRRip.XviD.AC3EVO.part1.rar
of0pu.The.Adventurer.The.Curse.of.the.Midas.Box.2013.480p.BRRip.XviD.AC3EVO.part1.rev
of0pu.The.Adventurer.The.Curse.of.the.Midas.Box.2013.480p.BRRip.XviD.AC3EVO.part2.rar
of0pu.The.Adventurer.The.Curse.of.the.Midas.Box.2013.480p.BRRip.XviD.AC3EVO.part3.rar
of0pu.The.Adventurer.The.Curse.of.the.Midas.Box.2013.480p.BRRip.XviD.AC3EVO.part4.rar

RyuShare:
of0pu.The.Adventurer.The.Curse.of.the.Midas.Box.2013.480p.BRRip.XviD.AC3EVO.part1.rar
of0pu.The.Adventurer.The.Curse.of.the.Midas.Box.2013.480p.BRRip.XviD.AC3EVO.part1.rev
of0pu.The.Adventurer.The.Curse.of.the.Midas.Box.2013.480p.BRRip.XviD.AC3EVO.part2.rar
of0pu.The.Adventurer.The.Curse.of.the.Midas.Box.2013.480p.BRRip.XviD.AC3EVO.part3.rar
of0pu.The.Adventurer.The.Curse.of.the.Midas.Box.2013.480p.BRRip.XviD.AC3EVO.part4.rar

SecureUpload:
of0pu.The.Adventurer.The.Curse.of.the.Midas.Box.2013.480p.BRRip.XviD.AC3EVO.part1.rar
of0pu.The.Adventurer.The.Curse.of.the.Midas.Box.2013.480p.BRRip.XviD.AC3EVO.part1.rev
of0pu.The.Adventurer.The.Curse.of.the.Midas.Box.2013.480p.BRRip.XviD.AC3EVO.part2.rar
of0pu.The.Adventurer.The.Curse.of.the.Midas.Box.2013.480p.BRRip.XviD.AC3EVO.part3.rar
of0pu.The.Adventurer.The.Curse.of.the.Midas.Box.2013.480p.BRRip.XviD.AC3EVO.part4.rar


Links are Interchangeable - No Password
Direct Download

Tags: Adventurer
Xfer Lfo Tool Pc Download | Thea Render For Sketchup Torrent | Font Arabic Muhammad | Grammar And Vocabulary For Cambridge First Nd Edition | Heypasteit Little | Ccna Routing And Switching Epub Files | Imgchili Special | Vintage Family Nudists Sonnenfreunde Premium Galleries | Soper Film Siksi | Fix General Error In Lumion | Glitch Twitch Rgb Tv Noise After Effects | Password Avast Premier License | Where Is Activation Code On Abnormal Psychology Dsm Comer Book | What Is The Code On The Door In Journals Of The Unknown Wolfs Labrynthit | General Hospital Rk Rskeeou | Garmin Cn North America Nt | Holidays Rule Download | Codice Gratis Di Attivazione Speedupmypc | Animal Sex Blog Download | Who Is The Voice For Agent Wild Rk Rsmx Eeokkflipsapskr

The Adventurer The Curse of the Midas Box 2013 Download via Hotfile Rapidshare Fileserve Megaupload & FileSonic, The Adventurer The Curse of the Midas Box 2013 free torrent downloads included crack, serial, keygen.


Add comments

Your Name:
Your E-Mail:

Security Code:
Include security image CAPCHA.
update code
Insert Code: