A Chorus Line 1985

Download Now

http://i33.fastpic.ru/big/2014/0125/ef/7a235296dbe9f540c6f4bbd4b28b8fef.jpg
A Chorus Line (1985)
BDRip 720p | AVI / XVID, 5130 Kbps | 1280x544 | 1h 57mn | 5.46 GB | English: DTS, 1509 Kbps (2 ch)
Genre: Drama | Music

A director is casting dancers for a large production. Large numbers of hopefulls audition, hoping to be selected. Throughout the day, more and more people are eliminated, and the competition gets harder. Eventually, approximately a dozen dancers must compete for a few spots, each hoping to impress the director with their dancing skill. But, is this really what the director is looking for?

imdb - Nominated for 3 Oscars. Another 5 nominations

General
Unique ID : 200320093691985528583847358990082696040 (0x96B43F2719E07C139236099060D8E368)
Complete name : japhson-acl-720p.mkv
Format : Matroska
Format version : Version 2
File size : 5.46 GiB
Duration : 1h 57mn
Overall bit rate : 6 641 Kbps
Encoded date : UTC 2014-01-23 03:32:24
Writing application : mkvmerge v3.3.0 ('Language') built on Mar 24 2010 14:59:24
Writing library : libebml v0.8.0 + libmatroska v0.9.0

Video
ID : 1
Format : AVC
Format/Info : Advanced Video Codec
Format profile : [email protected]
Format settings, CABAC : Yes
Format settings, ReFrames : 5 frames
Codec ID : V_MPEG4/ISO/AVC
Duration : 1h 57mn
Bit rate : 5 130 Kbps
Width : 1 280 pixels
Height : 544 pixels
Display aspect ratio : 2.35:1
Frame rate mode : Constant
Frame rate : 23.976 fps
Color space : YUV
Chroma subsampling : 4:2:0
Bit depth : 8 bits
Scan type : Progressive
Bits/(Pixel*Frame) : 0.307
Stream size : 4.11 GiB (75%)
Writing library : x264 core 140 r2377 1ca7bb9
Encoding settings : cabac=1 / ref=5 / deblock=1:-1:-1 / analyse=0x3:0x113 / me=umh / subme=7 / psy=1 / psy_rd=1.00:0.00 / mixed_ref=1 / me_range=16 / chroma_me=1 / trellis=1 / 8x8dct=1 / cqm=0 / deadzone=21,11 / fast_pskip=1 / chroma_qp_offset=-2 / threads=12 / lookahead_threads=2 / sliced_threads=0 / nr=0 / decimate=1 / interlaced=0 / bluray_compat=0 / constrained_intra=0 / bframes=3 / b_pyramid=2 / b_adapt=2 / b_bias=0 / direct=3 / weightb=1 / open_gop=0 / weightp=2 / keyint=250 / keyint_min=23 / scenecut=40 / intra_refresh=0 / rc_lookahead=40 / rc=2pass / mbtree=1 / bitrate=5130 / ratetol=1.0 / qcomp=0.60 / qpmin=0 / qpmax=69 / qpstep=4 / cplxblur=20.0 / qblur=0.5 / vbv_maxrate=50000 / vbv_bufsize=50000 / nal_hrd=none / filler=0 / ip_ratio=1.40 / aq=1:1.00
Language : English
Default : Yes
Forced : No

Audio
ID : 2
Format : DTS
Format/Info : Digital Theater Systems
Mode : 16
Format settings, Endianness : Big
Codec ID : A_DTS
Duration : 1h 57mn
Bit rate mode : Constant
Bit rate : 1 509 Kbps
Channel count : 2 channels
Channel positions : Front: L R
Sampling rate : 48.0 KHz
Bit depth : 24 bits
Compression mode : Lossy
Stream size : 1.24 GiB (23%)
Language : English
Default : Yes
Forced : No

screenshots:
http://i59.fastpic.ru/big/2014/0125/82/bcd1e8dc9cf7f38abf9e680e77dc8582.jpg
http://i60.fastpic.ru/big/2014/0125/16/e12f2c052c4ca49c4d5cac9eaf86f516.jpg
http://i57.fastpic.ru/big/2014/0125/17/443ce0a84467675857f6b908d779de17.jpg


DOWNLOAD LINKS
Buy Premium From My Links To Get Resumable Support & Max Speed & To Support Me

RapidGator:
ba5xt.japhsonacl720p.part01.rar.html
ba5xt.japhsonacl720p.part01.rev.html
ba5xt.japhsonacl720p.part02.rar.html
ba5xt.japhsonacl720p.part03.rar.html
ba5xt.japhsonacl720p.part04.rar.html
ba5xt.japhsonacl720p.part05.rar.html
ba5xt.japhsonacl720p.part06.rar.html
ba5xt.japhsonacl720p.part07.rar.html
ba5xt.japhsonacl720p.part08.rar.html
ba5xt.japhsonacl720p.part09.rar.html
ba5xt.japhsonacl720p.part10.rar.html
ba5xt.japhsonacl720p.part11.rar.html
ba5xt.japhsonacl720p.part12.rar.html
ba5xt.japhsonacl720p.part13.rar.html
ba5xt.japhsonacl720p.part14.rar.html
ba5xt.japhsonacl720p.part15.rar.html

DizzCloud:
ba5xt.japhsonacl720p.part01.rar
ba5xt.japhsonacl720p.part01.rev
ba5xt.japhsonacl720p.part02.rar
ba5xt.japhsonacl720p.part03.rar
ba5xt.japhsonacl720p.part04.rar
ba5xt.japhsonacl720p.part05.rar
ba5xt.japhsonacl720p.part06.rar
ba5xt.japhsonacl720p.part07.rar
ba5xt.japhsonacl720p.part08.rar
ba5xt.japhsonacl720p.part09.rar
ba5xt.japhsonacl720p.part10.rar
ba5xt.japhsonacl720p.part11.rar
ba5xt.japhsonacl720p.part12.rar
ba5xt.japhsonacl720p.part13.rar
ba5xt.japhsonacl720p.part14.rar
ba5xt.japhsonacl720p.part15.rar

RyuShare:
ba5xt.japhsonacl720p.part01.rar
ba5xt.japhsonacl720p.part01.rev
ba5xt.japhsonacl720p.part02.rar
ba5xt.japhsonacl720p.part03.rar
ba5xt.japhsonacl720p.part04.rar
ba5xt.japhsonacl720p.part05.rar
ba5xt.japhsonacl720p.part06.rar
ba5xt.japhsonacl720p.part07.rar
ba5xt.japhsonacl720p.part08.rar
ba5xt.japhsonacl720p.part09.rar
ba5xt.japhsonacl720p.part10.rar
ba5xt.japhsonacl720p.part11.rar
ba5xt.japhsonacl720p.part12.rar
ba5xt.japhsonacl720p.part13.rar
ba5xt.japhsonacl720p.part14.rar
ba5xt.japhsonacl720p.part15.rar

SecureUpload:
ba5xt.japhsonacl720p.part01.rar
ba5xt.japhsonacl720p.part01.rev
ba5xt.japhsonacl720p.part02.rar
ba5xt.japhsonacl720p.part03.rar
ba5xt.japhsonacl720p.part04.rar
ba5xt.japhsonacl720p.part05.rar
ba5xt.japhsonacl720p.part06.rar
ba5xt.japhsonacl720p.part07.rar
ba5xt.japhsonacl720p.part08.rar
ba5xt.japhsonacl720p.part09.rar
ba5xt.japhsonacl720p.part10.rar
ba5xt.japhsonacl720p.part11.rar
ba5xt.japhsonacl720p.part12.rar
ba5xt.japhsonacl720p.part13.rar
ba5xt.japhsonacl720p.part14.rar
ba5xt.japhsonacl720p.part15.rar


Links are Interchangeable - No Password
Direct Download

Tags: Chorus
Julia Mexzoo Zoofilia | Reality Cp Video Torrent | Google Video Downloader Sex Videos | Crack Economics For Today th Edition | Freaky Alarm Ipa Cracked | Cse Nd W Manual | Eset Smart Security Keys | Cleveland Jr And Cecilia | Launching An Online Business With Lewis Howes | Vimeo First Nudist | All Unknown Incest Cartoons | d Models Canasta Chaise Longue | Igra Prestolov Sezon Smotreti | Lingerie Wallpaper For Computer | Download Farming Simulator Free Full Version Besplatno | Driver Booster Free License | Gambar Merry Christmas And Happy New Year | Fundy Designer Windows Crack | Bapak Bapakgay Blogspot | Download Harmonic Rush Sylenth Presets Monster Sounds Vol Torrent

A Chorus Line 1985 Download via Hotfile Rapidshare Fileserve Megaupload & FileSonic, A Chorus Line 1985 free torrent downloads included crack, serial, keygen.


Add comments

Your Name:
Your E-Mail:

Security Code:
Include security image CAPCHA.
update code
Insert Code: