No One Could Protect Her 1996

Download Now
No One Could Protect Her (1996)
DVDRip | Lang: English | AVI | 640x480 | XviD @ 1169 Kbps, 23.976 fps | 01:31:33 | Subs: None | 897 Mb
Audio: AC3, 48000 Hz, stereo, 192 Kbps
Genre: Biography, Crime, Drama | USA

"This made-for-TV shocker had been influenced by a true story which occurred in Allentown, Pennsylvania. Housewife Jessica Rayner (Joanne Kerns form TV's Growing discomforts) becomes the latest in a lengthy range of sufferers when this woman is attacked inside her own residence by a vicious serial rapist and murderer just who preys on blondes. The distinction is that Jessica manages to endure the attack the first victim to do therefore. Despite Jessica's a testimony and trail of clues, the authorities seem unable of tracking down her assailant, forcing Jessica's spouse Dan (Anthony John Denison) to militantly protect his wife round the clock. But it's eventually Jessica by herself whom must devise the trap that will bring her attacker to justice."

IMDB Ratings: 5.8/10 from 172 users

Director: Larry Shaw
Writer: Bruce Miller
Actors: Joanna Kerns, Tony Denison, Peter MacNeill, Lori Hallier
Rated: TV-14
Runtime: 97 min

I recognized this story from an old copy of Readers' Digest. I recognized Joanna Kerns from Growing Pains. I recognized how severe the Description of this story was.

What most people don't know is that this is the true story of a woman who was raped a few years back, and sent her story into Readers' Digest under the name of Trouble In Allentown. I was young when I read it, but I knew about rape, even though I wish I hadn't at such a young age.

The man who raped this woman was a serial rapist one of the sickest types of people out there. He had a pattern, blondes. Young blondes. First a 29 year-old, then a 34 year-old, and then [ the worst of them all ] a four year-old girl, and he slaughtered them all.

The twist came, throwing the police off track was the 16 year-old girl, who was saved only because she was masked with a pillow case but she was a brunette. The woman became obsessed with solving the chain of vicious crimes.

This movie, while stirring, sent out a message that if one keeps their head in a perilous situation then they can overcome the fear and reign as the strong one.

And all should remember that this is a true story, and it wasn't made by a sick screen writer, so it could happen to anyone so be prepared for the worst of times at all times, not just for yourself, but for everyone.

9 of 12 people found this review helpful From"

More Screenshots:

Complete name : I:No_One_Could_Protect_Her.avi
Format : AVI
Format/Info : Audio Video Interleave
File size : 897 MiB
Duration : 1h 31mn
Overall bit rate : 1 370 Kbps
Writing application : FairUse Wizard -
Writing library : The best and REALLY easy backup tool

ID : 0
Format : MPEG-4 Visual
Format profile : Advanced [email protected]
Format settings, BVOP : 2
Format settings, QPel : No
Format settings, GMC : No warppoints
Format settings, Matrix : Default (H.263)
Muxing mode : Packed bitstream
Codec ID : XVID
Codec ID/Hint : XviD
Duration : 1h 31mn
Bit rate : 1 169 Kbps
Width : 640 pixels
Height : 480 pixels
Display aspect ratio : 4:3
Frame rate : 23.976 fps
Color space : YUV
Chroma subsampling : 4:2:0
Bit depth : 8 bits
Scan type : Progressive
Compression mode : Lossy
Bits/(Pixel*Frame) : 0.159
Stream size : 765 MiB (85%)
Writing library : XviD 1.2.1 (UTC 2008-12-04)

ID : 1
Format : AC-3
Format/Info : Audio Coding 3
Mode extension : CM (complete main)
Format settings, Endianness : Big
Codec ID : 2000
Duration : 1h 31mn
Bit rate mode : Constant
Bit rate : 192 Kbps
Channel(s) : 2 channels
Channel positions : Front: L R
Sampling rate : 48.0 KHz
Bit depth : 16 bits
Compression mode : Lossy
Stream size : 126 MiB (14%)
Alignment : Split accross interleaves
Interleave, duration : 42 ms (1.00 video frame)
Interleave, preload duration : 500 ms

Buy Premium From My Links To Get Resumable Support & Max Speed & To Support Me

Links are Interchangeable - No Password
Direct Download

Tags: Protect
Pthc Collections | Bad Onion Lolicon | d The Cheshire Cat Full Comics Loli | Iskysoft Data Recovery Mac Full | Free Download Beastiality Porb Rk Rs Rxgf | Magix Photo Premium Torrent | Lego Porn Wild Style | Eset Nod Serials Key | Sayanna Monroe Tube | Clean My Mac Activation Code | Boobs Pop Out Of Blouse | Novos Proxy Para Opnext Handler | Ceh V Study Guide Rk Rs Dormkutdgaqmo | Foto Telanjang Artis Bianca Liza | Download Os X Mavrick Bit Iso Rk Rs Rircut | Aerofly Fs Product Key | Reason Crack Patch Password | Elsa And Christof | Lucie Wilde Natural Tube

No One Could Protect Her 1996 Download via Hotfile Rapidshare Fileserve Megaupload & FileSonic, No One Could Protect Her 1996 free torrent downloads included crack, serial, keygen.

Add comments

Your Name:
Your E-Mail:

Security Code:
Include security image CAPCHA.
update code
Insert Code: