The Libertine 1968

Download Now

http://i59.fastpic.ru/big/2014/0217/e6/f11560199240296be95bd56879431be6.jpg
The Libertine / La Matriarca (1968)
DVDRip | Lang: English | AVI | 704x384 | XviD, @ 1711 Kbps, 23.976 fps | 01:31:45 | Subs: None | 1.37 Gb
Audio: #1 AC3, 48000 Hz, stereo, 192 kb/s #2 AC3, 48000 Hz, stereo, 224 kb/s
Genre: Comedy, Drama | Italy

"A sexy widow discovers her late husband had a secret apartment where he cheated on her. Now she decides to used the same apartment to explore her own sexuality."

IMDB Ratings: 5.6/10 from 303 users

Director: Pasquale Festa Campanile
Writer: Ottavio Jemma (screenplay), Nicolò Ferrari (story)
Actors: Catherine Spaak, Jean-Louis Trintignant, Gigi Proietti, Luigi Pistilli
Rated: X
Runtime: 90 min

"
This is a charming, saucy and insanely amusing little film, featuring Catherine Spaak and assorted body doubles in such generous amounts of body, only a hater of physical beauty won't be charmed. Possibly to death.

http://i33.fastpic.ru/big/2014/0217/09/e671b8223eb96494a9e845ad976b9209.jpg

Note; whatever you do, buy the VHS. Not only is the DVD a bust - no pun, please, but many of Ms. Spaak's more revealing and best, (and I MEAN revealing) moments, have been edited out. (Le recul, le chéri de Catherine ?) These included a nice shot for posterity, of Cat's um, posterior as well as a - well full-frontal surprise this delectable Belgian hottie plays on a school teacher. Not to mention that color separation and poor film stock issues are actually exacerbated on the DVD. There is really nothing to recommend it- except that most won't watch VHS any more. (The DVD does have a few cute outtakes, but my God, we're talking a gorgeous woman, like no other, who plays horsie at great length in the film; surely THAT footage should have been the source of any outtakes.

http://i59.fastpic.ru/big/2014/0217/5d/0f046b0097b2e15fa6b9d323f1e92a5d.jpg

The film and its incessantly catchy theme commenced ... and we find our girl Spaak at her husband's funeral. Far from remorseful, Spaak's 'Mimi' says of his death, she feels 'nothing.' But soon, SOON, dear viewer, she'll feel SOMETHING and in a big way and often!

While as fluffy as a Roman Cloud in May, this movie is cited for having a few underlying themes of the 'eat drink and be merry for tomorrow...,' as well as 'know thy woman or else' type. Perhaps, perhaps not. Doesn't matter. The film is hysterical and very much like the music of the Smiths - if anyone else tried this stuff, it would be a disaster; in their capable hands, a delight. ... Even if Rome has few clouds of any kind in May

http://i60.fastpic.ru/big/2014/0217/3c/918c4c574603616e2fb0a9b0882ff33c.jpg

Freed from a husband for whom sexually, Mimi never responded, she proceeds to go on a tear, of - if memory serves, 8 count em' eight, men in a row, not to mention an apparent orgy where God knows what the score may have been.

It happens that Spaak's deceased had a play pen in Rome, a hideaway where the latter took his gals, including Spaak's best friend. Spaak learns of this piede e terre through her attorney whom she then beds. She then goes through the roll call: dentist, tennis pro, john, (a guy who thinks she's a prostitute) sadist, (truly regrettable, but very much of the times and a reminder one hopes, of what's NOT acceptable any longer), plumber, (not just 'any plumber' but in fact, her maid's husband) and finally, doctor. Not to mention whatever is going on in the orgy scene, which is actually another film; the orgy occurs in a movie that Catherine plays to the doctor to try and dissuade him from proposing marriage.

Nothing doing. This doctor is no fool. He hangs in there and is not put off by her scandalous behavior. Even excites him within the context of, 'family life.'

Amusingly, from the earliest scenes, Mimi is shown boning up on various abnormal sexuality tomes.One of which suggests that Aristotle became aroused through the act of playing horse, or as translated from Italian, 'Ride a cock horse.' Therein lies the films resolution. Owing to a sprained ankle recently suffered, Mimi asks the doctor to carry her. A few unforgettable scenes later and the two are saying how boring their wedding was and Spaak proceeds to ride her new beau into a boundless matrimonial bliss. Obviously, this cat catered to her thing, which of course resolved all her long-held inhibitions, etc. You get it.

http://i33.fastpic.ru/big/2014/0217/4f/f4d45011a4b3ce27ee0fa612794c804f.jpg

With this flick, Ridley Scott directed a wonderful, charming witty and above all, genuinely hilarious film, if very much, of its time. Me thinks Catherine Spaak's role could not have been performed by any other, as it is her ability as a comedienne and of course her incredible (and highly unusual) beauty - and other bits - that make this so special. Why, that gal Spaak has more 'it' than the top leading ladies of today, rolled together! As to WHY Ridley Scott used such terrible film stock, you'd have to ask him.

A MUST SEE for laughs and when you just need a shot of pure unadulterated sexuality, the real deal, not some creature from a West Hollywood surgeon who left some poor girl's best parts on the cutting room floor.

22 of 23 people found this review helpful From imdb.com"

More Screenshots:
http://i33.fastpic.ru/big/2014/0217/cd/d52e67910775d4095bbd5a8667c86bcd.jpg


General
Complete name : I:The Libertine (1968).avi
Format : AVI
Format/Info : Audio Video Interleave
File size : 1.37 GiB
Duration : 1h 31mn
Overall bit rate : 2 135 Kbps
Writing application : VirtualDubMod 1.5.4.1 (build 2178/release)
Writing library : VirtualDubMod build 2178/release

Video
ID : 0
Format : MPEG-4 Visual
Format profile : Advanced [email protected]
Format settings, BVOP : 1
Format settings, QPel : No
Format settings, GMC : No warppoints
Format settings, Matrix : Custom
Codec ID : XVID
Codec ID/Hint : XviD
Duration : 1h 31mn
Bit rate : 1 711 Kbps
Width : 704 pixels
Height : 384 pixels
Display aspect ratio : 1.85:1
Frame rate : 23.976 fps
Color space : YUV
Chroma subsampling : 4:2:0
Bit depth : 8 bits
Scan type : Progressive
Compression mode : Lossy
Bits/(Pixel*Frame) : 0.264
Stream size : 1.10 GiB (80%)
Writing library : XviD 1.2.1 (UTC 2008-12-04)

Audio #1
ID : 1
Format : AC-3
Format/Info : Audio Coding 3
Mode extension : CM (complete main)
Format settings, Endianness : Big
Codec ID : 2000
Duration : 1h 31mn
Bit rate mode : Constant
Bit rate : 192 Kbps
Channel(s) : 2 channels
Channel positions : Front: L R
Sampling rate : 48.0 KHz
Bit depth : 16 bits
Compression mode : Lossy
Stream size : 126 MiB (9%)
Alignment : Split accross interleaves
Interleave, duration : 96 ms (2.30 video frames)
Interleave, preload duration : 96 ms
Language : English

Audio #2
ID : 2
Format : AC-3
Format/Info : Audio Coding 3
Mode extension : CM (complete main)
Format settings, Endianness : Big
Codec ID : 2000
Duration : 1h 31mn
Bit rate mode : Constant
Bit rate : 224 Kbps
Channel(s) : 2 channels
Channel positions : Front: L R
Sampling rate : 48.0 KHz
Bit depth : 16 bits
Compression mode : Lossy
Stream size : 146 MiB (10%)
Alignment : Split accross interleaves
Interleave, duration : 96 ms (2.31 video frames)
Interleave, preload duration : 96 ms

Download:
Buy Premium To Support Me & Get Resumable Support & Max Speed



Links are Interchangeable - No Password
Direct Download

Tags: Libertine
Dailymotion Elizabeth Marx | Corel Products Keygen V Core | Public Notes Normal Version Login Rsadatlnqnpeu Rk Rscoem | Autodesk Civil d Release Date | Iphone Unlocker V Key | Children Pornomodels | Flashfox Pro Torrent Comments | Cari Film Bokep Indonesia | Rneg Cracked | Jago And Litefoot Series Torrent | Ptch Cp Video Torrent | Boob Mod Tomb Raider Legend | Apostila De Inventor Profissional | Care Este Password Unlock Railworks Train Simulator | Office Toolkit Exe Mb shared | Install Steamosdvd Iso | Voyeour Cams Maya And Stepan Sex Videos | Healthy Fitness Gym Purenudism

The Libertine 1968 Download via Hotfile Rapidshare Fileserve Megaupload & FileSonic, The Libertine 1968 free torrent downloads included crack, serial, keygen.


Add comments

Your Name:
Your E-Mail:

Security Code:
Include security image CAPCHA.
update code
Insert Code: