Puzzle 1974

Download Now

http://i33.fastpic.ru/big/2014/0217/a8/50d836229c8330dc2de4dc02332770a8.jpg
Puzzle / L'uomo senza memoria (1974)
DVDRip H264 | Lang: Italian, English (2Tracks) | MKV | 708x546 | AVC, @ 2551 Kbps, 25.000 fps | 88 Min | Subs: English | 1.56 Gb
Audio: #1 AC3, 48000 Hz, stereo, 192 kb/s (Ita) #2 AC3, 48000 Hz, stereo, 192 kb/s (eng)
Genre: Mystery, Thriller | Italy

"Peter Smith (Luc Merenda) is a well-to-do sort of chap. The only problem is that, for the past nine months, he has suffered from amnesia and has no idea who he is. He is not particularly amused, therefore, when a stranger accosts him in his London residence, tells him his real name is Ted Walden, and attempts to kill him. A well-placed bullet from an unseen sniper quickly puts paid to this, and, fearing for his own life, Ted elopes to Italy, where, it transpires, he has a wife, Sara (Senta Berger). Trying to put the strange events of London behind him, Ted makes tentative steps towards rekindling his relationship with Sara, who accepts him back despite his having no memory of her at all. However, as he slowly pieces together the fragmented shards of his mind, he quickly begins to realise that some memories are better off remaining buried."

IMDB Ratings: 6.6/10 from 350 users

Director: Duccio Tessari
Writer: Ernesto Gastaldi
Actors: Senta Berger, Luc Merenda, Umberto Orsini, Anita Strindberg
Rated: N/A
Runtime: 92 min

"
As gialli go, Puzzle is lies off the beaten track, in more ways than one. Not only is it one of the most obscure films of its type, rarely seen after its 1974 theatrical release, it also challenges the very definition of the genre, having little in common with its stylish cousins from Argento, Fulci and Bava, with their high body counts and psychotropic musical scores. Yet giallo it is, despite the Anglicisation of the term often leading viewers to think that a film can only be considered a giallo if it features a black-gloved killer and strong psychosexual undertones. This slow, understated giallo has a lot in common with Alfred Hitchcock's own study of amnesia, Spellbound.

http://i33.fastpic.ru/big/2014/0217/5e/d485c533decd617502b7ae50b5bf565e.jpg

As with his previous giallo, The Bloodstained Butterfly, Tessari keeps his style subdued, eschewing the brash colours and convoluted camera setups for which the genre has become known in favour of a more down to earth realism. This is no bad thing, because the script, uncharacteristically for a film of its type, is focused on the characters far more than the set-pieces.
"

More Screenshots:
http://i33.fastpic.ru/big/2014/0217/43/2d1a73bd04503bc5e3d540f63ac19143.jpg


General
Unique ID : 2757239381107287533126227725406115196 (0x2130665AA5BA832ADF8BAADF937157C)
Complete name : I:Man.Without.A.Memory.1974.DVDRip.x264-HANDJOB.mkv
Format : Matroska
Format version : Version 2
File size : 1.57 GiB
Duration : 1h 27mn
Overall bit rate : 2 551 Kbps
Writing application : HandBrake 0.9.9
Writing library : libmkv 0.6.5

Video
ID : 1
Format : AVC
Format/Info : Advanced Video Codec
Format profile : [email protected]
Format settings, CABAC : Yes
Format settings, ReFrames : 9 frames
Codec ID : V_MPEG4/ISO/AVC
Duration : 1h 27mn
Bit rate : 2 116 Kbps
Width : 708 pixels
Height : 546 pixels
Display aspect ratio : 1.85:1
Original display aspect ratio : 1.85:1
Frame rate mode : Constant
Frame rate : 25.000 fps
Color space : YUV
Chroma subsampling : 4:2:0
Bit depth : 8 bits
Scan type : Progressive
Bits/(Pixel*Frame) : 0.219
Stream size : 1.30 GiB (83%)
Writing library : x264 core 130 r2273 b3065e6
Encoding settings : cabac=1 / ref=9 / deblock=1:-3:-3 / analyse=0x3:0x133 / me=umh / subme=9 / psy=1 / psy_rd=1.00:0.00 / mixed_ref=1 / me_range=24 / chroma_me=1 / trellis=2 / 8x8dct=1 / cqm=0 / deadzone=21,11 / fast_pskip=0 / chroma_qp_offset=-2 / threads=6 / lookahead_threads=1 / sliced_threads=0 / nr=0 / decimate=1 / interlaced=0 / bluray_compat=0 / constrained_intra=0 / bframes=6 / b_pyramid=2 / b_adapt=2 / b_bias=0 / direct=3 / weightb=1 / open_gop=0 / weightp=2 / keyint=250 / keyint_min=25 / scenecut=40 / intra_refresh=0 / rc_lookahead=60 / rc=crf / mbtree=1 / crf=19.5 / qcomp=0.60 / qpmin=0 / qpmax=69 / qpstep=4 / ip_ratio=1.40 / aq=1:1.00
Language : English
Default : Yes
Forced : No
Color primaries : BT.601 PAL
Transfer characteristics : BT.709
Matrix coefficients : BT.601

Audio #1
ID : 2
Format : AC-3
Format/Info : Audio Coding 3
Mode extension : CM (complete main)
Format settings, Endianness : Big
Codec ID : A_AC3
Duration : 1h 27mn
Bit rate mode : Constant
Bit rate : 192 Kbps
Channel(s) : 2 channels
Channel positions : Front: L R
Sampling rate : 48.0 KHz
Bit depth : 16 bits
Compression mode : Lossy
Stream size : 121 MiB (8%)
Language : Italian
Default : Yes
Forced : No

Audio #2
ID : 3
Format : AC-3
Format/Info : Audio Coding 3
Mode extension : CM (complete main)
Format settings, Endianness : Big
Codec ID : A_AC3
Duration : 1h 27mn
Bit rate mode : Constant
Bit rate : 192 Kbps
Channel(s) : 2 channels
Channel positions : Front: L R
Sampling rate : 48.0 KHz
Bit depth : 16 bits
Compression mode : Lossy
Stream size : 121 MiB (8%)
Language : English
Default : No
Forced : No

Text
ID : 4
Format : VobSub
Codec ID : S_VOBSUB
Codec ID/Info : The same subtitle format used on DVDs
Language : English
Default : No
Forced : No

Menu
00:00:00.000 : Chapter 1
00:02:58.640 : Chapter 2
00:04:27.920 : Chapter 3
00:07:57.680 : Chapter 4
00:12:31.280 : Chapter 5
00:17:23.120 : Chapter 6
00:20:29.360 : Chapter 7
00:23:55.760 : Chapter 8
00:28:11.120 : Chapter 9
00:32:57.680 : Chapter 10
00:36:08.720 : Chapter 11
00:39:49.040 : Chapter 12
00:42:59.600 : Chapter 13
00:45:41.920 : Chapter 14
00:50:03.520 : Chapter 15
00:52:18.400 : Chapter 16
00:55:46.720 : Chapter 17
01:00:15.520 : Chapter 18
01:02:45.280 : Chapter 19
01:06:18.880 : Chapter 20
01:10:08.320 : Chapter 21
01:12:35.200 : Chapter 22
01:14:43.840 : Chapter 23
01:17:35.200 : Chapter 24
01:20:04.960 : Chapter 25
01:23:36.160 : Chapter 26

Download:
Buy Premium To Support Me & Get Resumable Support & Max Speed



Links are Interchangeable - No Password
Direct Download

Tags: Puzzle
Game Of Thrones S Mediafire Link | Installing Solidworks Solidsquad | Litl Girl Model Rk Rsw Hddbs | The Hobbit p Nzb | Masin Surmek Oyunlari | Levitation Wordpress Download Rar | Emd F Sprr Torrent | Aktivasi Windows Skype | Windows Ksm Pico | English War Movie g Mp Movie Spartacus Download | Now You See Me Subtitle English Mkv File Rk Rsk | Korra Asami Fan Fiction | Young Jailbait Kids | Makfin Multfilmi | In Room With Milton Erickson Dvd Torrent | Serbian Mature Hard Fuck Serbian | Numetal Eq Guitar | Cdkey Password Unlimited Ninja | Torrent Exam Configuring Advanced Windows Server Services | Password Railworks Train Simulator Free Download

Puzzle 1974 Download via Hotfile Rapidshare Fileserve Megaupload & FileSonic, Puzzle 1974 free torrent downloads included crack, serial, keygen.


Add comments

Your Name:
Your E-Mail:

Security Code:
Include security image CAPCHA.
update code
Insert Code: