The Book Thief 2013

Download Now

http://i33.fastpic.ru/big/2014/0227/a0/e5f17836fe0adf2453eb81c9b6c259a0.jpg
The Book Thief (2013)
WEBDL 720p | MKV / AVC, 3984 Kbps | 1280x534 | 2h 11mn | 4.09 GB | English: AC3, 384 Kbps (6 ch) | Subtitles: English, French, Spanish, Portuguese
WEBDL 1080p | MKV / AVC | 1916x800 | 2h 11mn | 4.01 GB | English: AC3, 384 Kbps (6 ch) | Spanish: AAC, (2 ch) | Subtitles: English, French, Spanish, Portuguese
Genre: Drama | War

Based on the beloved bestselling book, THE BOOK THIEF tells the story of a spirited and courageous young girl who transforms the lives of everyone around her when she is sent to live with a foster family in World War II Germany.

imdb - Nominated for 1 Oscar. Another 3 wins & 6 nominations

General
Unique ID : 231578552231517661672293368494350606971 (0xAE3868257D7217E68B64309014AF227B)
Complete name : The.Book.Thief.2013.720p.WEB-DL.mkv
Format : Matroska
Format version : Version 4 / Version 2
File size : 4.09 GiB
Duration : 2h 11mn
Overall bit rate : 4 457 Kbps
Encoded date : UTC 2014-02-25 07:46:13
Writing application : mkvmerge v6.7.0 ('Back to the Ground') 64bit built on Jan 8 2014 15:10:52
Writing library : libebml v1.3.0 + libmatroska v1.4.1

Video
ID : 1
Format : AVC
Format/Info : Advanced Video Codec
Format profile : [email protected]
Format settings, CABAC : No
Format settings, ReFrames : 2 frames
Codec ID : V_MPEG4/ISO/AVC
Duration : 2h 11mn
Bit rate : 3 984 Kbps
Width : 1 280 pixels
Height : 534 pixels
Display aspect ratio : 2.40:1
Frame rate mode : Constant
Frame rate : 23.976 fps
Color space : YUV
Chroma subsampling : 4:2:0
Bit depth : 8 bits
Scan type : Progressive
Bits/(Pixel*Frame) : 0.243
Stream size : 3.66 GiB (89%)
Language : English
Default : Yes
Forced : No
Color primaries : BT.709
Transfer characteristics : BT.709
Matrix coefficients : BT.709

Audio
ID : 2
Format : AC-3
Format/Info : Audio Coding 3
Mode extension : CM (complete main)
Format settings, Endianness : Big
Codec ID : A_AC3
Duration : 2h 11mn
Bit rate mode : Constant
Bit rate : 384 Kbps
Channel count : 6 channels
Channel positions : Front: L C R, Side: L R, LFE
Sampling rate : 48.0 KHz
Bit depth : 16 bits
Compression mode : Lossy
Stream size : 361 MiB (9%)
Language : English
Default : Yes
Forced : No

Text #1
ID : 3
Format : UTF-8
Codec ID : S_TEXT/UTF8
Codec ID/Info : UTF-8 Plain Text
Language : English
Default : No
Forced : No

Text #2
ID : 4
Format : UTF-8
Codec ID : S_TEXT/UTF8
Codec ID/Info : UTF-8 Plain Text
Language : English
Default : No
Forced : No

Text #3
ID : 5
Format : UTF-8
Codec ID : S_TEXT/UTF8
Codec ID/Info : UTF-8 Plain Text
Language : English
Default : No
Forced : No

Text #4
ID : 6
Format : UTF-8
Codec ID : S_TEXT/UTF8
Codec ID/Info : UTF-8 Plain Text
Language : French
Default : No
Forced : No

Text #5
ID : 7
Format : UTF-8
Codec ID : S_TEXT/UTF8
Codec ID/Info : UTF-8 Plain Text
Language : Spanish
Default : No
Forced : No

Text #6
ID : 8
Format : UTF-8
Codec ID : S_TEXT/UTF8
Codec ID/Info : UTF-8 Plain Text
Language : Portuguese
Default : No
Forced : No

General
Unique ID : 213487697946683230194926234352687843834 (0xA09C3C2A7E092ED49FA923537B4109FA)
Complete name : The.Book.Thief.2013.1080p.WEB-DL.mkv
Format : Matroska
Format version : Version 4 / Version 2
File size : 4.01 GiB
Duration : 2h 11mn
Overall bit rate : 4 375 Kbps
Encoded date : UTC 2014-02-25 07:54:19
Writing application : mkvmerge v6.7.0 ('Back to the Ground') 64bit built on Jan 8 2014 15:10:52
Writing library : libebml v1.3.0 + libmatroska v1.4.1

Video
ID : 1
Format : AVC
Format/Info : Advanced Video Codec
Format profile : [email protected]
Format settings, CABAC : Yes
Format settings, ReFrames : 5 frames
Codec ID : V_MPEG4/ISO/AVC
Duration : 2h 11mn
Width : 1 916 pixels
Height : 800 pixels
Display aspect ratio : 2.40:1
Frame rate mode : Constant
Frame rate : 23.976 fps
Color space : YUV
Chroma subsampling : 4:2:0
Bit depth : 8 bits
Scan type : Progressive
Language : English
Default : Yes
Forced : No
Color primaries : BT.709
Transfer characteristics : BT.709
Matrix coefficients : BT.709

Audio #1
ID : 2
Format : AC-3
Format/Info : Audio Coding 3
Mode extension : CM (complete main)
Format settings, Endianness : Big
Codec ID : A_AC3
Duration : 2h 11mn
Bit rate mode : Constant
Bit rate : 384 Kbps
Channel count : 6 channels
Channel positions : Front: L C R, Side: L R, LFE
Sampling rate : 48.0 KHz
Bit depth : 16 bits
Compression mode : Lossy
Stream size : 361 MiB (9%)
Language : English
Default : Yes
Forced : No

Audio #2
ID : 3
Format : AAC
Format/Info : Advanced Audio Codec
Format profile : LC
Codec ID : A_AAC
Duration : 2h 11mn
Channel count : 2 channels
Channel positions : Front: L R
Sampling rate : 48.0 KHz
Compression mode : Lossy
Language : Spanish
Default : No
Forced : No

Text #1
ID : 4
Format : UTF-8
Codec ID : S_TEXT/UTF8
Codec ID/Info : UTF-8 Plain Text
Language : English
Default : No
Forced : No

Text #2
ID : 5
Format : UTF-8
Codec ID : S_TEXT/UTF8
Codec ID/Info : UTF-8 Plain Text
Language : English
Default : No
Forced : No

Text #3
ID : 6
Format : UTF-8
Codec ID : S_TEXT/UTF8
Codec ID/Info : UTF-8 Plain Text
Language : English
Default : No
Forced : No

Text #4
ID : 7
Format : UTF-8
Codec ID : S_TEXT/UTF8
Codec ID/Info : UTF-8 Plain Text
Language : French
Default : No
Forced : No

Text #5
ID : 8
Format : UTF-8
Codec ID : S_TEXT/UTF8
Codec ID/Info : UTF-8 Plain Text
Language : Spanish
Default : No
Forced : No

Text #6
ID : 9
Format : UTF-8
Codec ID : S_TEXT/UTF8
Codec ID/Info : UTF-8 Plain Text
Language : Spanish
Default : No
Forced : No

Text #7
ID : 10
Format : UTF-8
Codec ID : S_TEXT/UTF8
Codec ID/Info : UTF-8 Plain Text
Language : Portuguese
Default : No
Forced : No

screenshots - WEBDL 720p:
http://i57.fastpic.ru/big/2014/0227/ae/16582d6fb3329b4b3e9e080d7f5591ae.jpg
http://i33.fastpic.ru/big/2014/0227/a7/a00f8c160e21ce231c27b86c87e57da7.jpg
http://i57.fastpic.ru/big/2014/0227/c9/3fcf4cdf4c928ff6e8dd09d56cf76ac9.jpg

screenshots - WEBDL 1080p:
http://i33.fastpic.ru/big/2014/0227/9a/94f1dccbba047d341901deb9cde63d9a.jpg
http://i60.fastpic.ru/big/2014/0227/c0/5242d3acbbf02612dc0b6e6d01975cc0.jpg
http://i59.fastpic.ru/big/2014/0227/78/f168b766a5be7b602f38f5d38eb28d78.jpg


Download:
Buy Premium To Support Me & Get Resumable Support & Max Speed

rapidgator:
wyr5e.The.Book.Thief.2013.1080p.WEBDL.part01.rar.html
wyr5e.The.Book.Thief.2013.1080p.WEBDL.part01.rev.html
wyr5e.The.Book.Thief.2013.1080p.WEBDL.part02.rar.html
wyr5e.The.Book.Thief.2013.1080p.WEBDL.part03.rar.html
wyr5e.The.Book.Thief.2013.1080p.WEBDL.part04.rar.html
wyr5e.The.Book.Thief.2013.1080p.WEBDL.part05.rar.html
wyr5e.The.Book.Thief.2013.1080p.WEBDL.part06.rar.html
wyr5e.The.Book.Thief.2013.1080p.WEBDL.part07.rar.html
wyr5e.The.Book.Thief.2013.1080p.WEBDL.part08.rar.html
wyr5e.The.Book.Thief.2013.1080p.WEBDL.part09.rar.html
wyr5e.The.Book.Thief.2013.1080p.WEBDL.part10.rar.html
wyr5e.The.Book.Thief.2013.1080p.WEBDL.part11.rar.html
wyr5e.The.Book.Thief.2013.720p.WEBDL.part01.rar.html
wyr5e.The.Book.Thief.2013.720p.WEBDL.part01.rev.html
wyr5e.The.Book.Thief.2013.720p.WEBDL.part02.rar.html
wyr5e.The.Book.Thief.2013.720p.WEBDL.part03.rar.html
wyr5e.The.Book.Thief.2013.720p.WEBDL.part04.rar.html
wyr5e.The.Book.Thief.2013.720p.WEBDL.part05.rar.html
wyr5e.The.Book.Thief.2013.720p.WEBDL.part06.rar.html
wyr5e.The.Book.Thief.2013.720p.WEBDL.part07.rar.html
wyr5e.The.Book.Thief.2013.720p.WEBDL.part08.rar.html
wyr5e.The.Book.Thief.2013.720p.WEBDL.part09.rar.html
wyr5e.The.Book.Thief.2013.720p.WEBDL.part10.rar.html
wyr5e.The.Book.Thief.2013.720p.WEBDL.part11.rar.html

uploadable_ch:
wyr5e.The.Book.Thief.2013.1080p.WEBDL.part01.rar
wyr5e.The.Book.Thief.2013.1080p.WEBDL.part01.rev
wyr5e.The.Book.Thief.2013.1080p.WEBDL.part02.rar
wyr5e.The.Book.Thief.2013.1080p.WEBDL.part03.rar
wyr5e.The.Book.Thief.2013.1080p.WEBDL.part04.rar
wyr5e.The.Book.Thief.2013.1080p.WEBDL.part05.rar
wyr5e.The.Book.Thief.2013.1080p.WEBDL.part06.rar
wyr5e.The.Book.Thief.2013.1080p.WEBDL.part07.rar
wyr5e.The.Book.Thief.2013.1080p.WEBDL.part08.rar
wyr5e.The.Book.Thief.2013.1080p.WEBDL.part09.rar
wyr5e.The.Book.Thief.2013.1080p.WEBDL.part10.rar
wyr5e.The.Book.Thief.2013.1080p.WEBDL.part11.rar
wyr5e.The.Book.Thief.2013.720p.WEBDL.part01.rar
wyr5e.The.Book.Thief.2013.720p.WEBDL.part01.rev
wyr5e.The.Book.Thief.2013.720p.WEBDL.part02.rar
wyr5e.The.Book.Thief.2013.720p.WEBDL.part03.rar
wyr5e.The.Book.Thief.2013.720p.WEBDL.part04.rar
wyr5e.The.Book.Thief.2013.720p.WEBDL.part05.rar
wyr5e.The.Book.Thief.2013.720p.WEBDL.part06.rar
wyr5e.The.Book.Thief.2013.720p.WEBDL.part07.rar
wyr5e.The.Book.Thief.2013.720p.WEBDL.part08.rar
wyr5e.The.Book.Thief.2013.720p.WEBDL.part09.rar
wyr5e.The.Book.Thief.2013.720p.WEBDL.part10.rar
wyr5e.The.Book.Thief.2013.720p.WEBDL.part11.rar

ryushare:
wyr5e.The.Book.Thief.2013.1080p.WEBDL.part01.rar
wyr5e.The.Book.Thief.2013.1080p.WEBDL.part01.rev
wyr5e.The.Book.Thief.2013.1080p.WEBDL.part02.rar
wyr5e.The.Book.Thief.2013.1080p.WEBDL.part03.rar
wyr5e.The.Book.Thief.2013.1080p.WEBDL.part04.rar
wyr5e.The.Book.Thief.2013.1080p.WEBDL.part05.rar
wyr5e.The.Book.Thief.2013.1080p.WEBDL.part06.rar
wyr5e.The.Book.Thief.2013.1080p.WEBDL.part07.rar
wyr5e.The.Book.Thief.2013.1080p.WEBDL.part08.rar
wyr5e.The.Book.Thief.2013.1080p.WEBDL.part09.rar
wyr5e.The.Book.Thief.2013.1080p.WEBDL.part10.rar
wyr5e.The.Book.Thief.2013.1080p.WEBDL.part11.rar
wyr5e.The.Book.Thief.2013.720p.WEBDL.part01.rar
wyr5e.The.Book.Thief.2013.720p.WEBDL.part01.rev
wyr5e.The.Book.Thief.2013.720p.WEBDL.part02.rar
wyr5e.The.Book.Thief.2013.720p.WEBDL.part03.rar
wyr5e.The.Book.Thief.2013.720p.WEBDL.part04.rar
wyr5e.The.Book.Thief.2013.720p.WEBDL.part05.rar
wyr5e.The.Book.Thief.2013.720p.WEBDL.part06.rar
wyr5e.The.Book.Thief.2013.720p.WEBDL.part07.rar
wyr5e.The.Book.Thief.2013.720p.WEBDL.part08.rar
wyr5e.The.Book.Thief.2013.720p.WEBDL.part09.rar
wyr5e.The.Book.Thief.2013.720p.WEBDL.part10.rar
wyr5e.The.Book.Thief.2013.720p.WEBDL.part11.rar


Links are Interchangeable - No Password
Direct Download

The Book Thief 2013 Download via Hotfile Rapidshare Fileserve Megaupload & FileSonic, The Book Thief 2013 free torrent downloads included crack, serial, keygen.


Add comments

Your Name:
Your E-Mail:

Security Code:
Include security image CAPCHA.
update code
Insert Code: