Hitchcock 砧麝铌 2012

Download Now

http://i33.fastpic.ru/big/2014/0301/a9/af3d699b580d53152327d1b3fe4c7da9.jpg
Hitchcock / 砧麝铌 (2012)
BDRip | MKV | AVC 1280x534, ~ 4.8 Mbps | 1hr 38mn | 7.99 GB
English: DTS, 6 ch, 1510 kbps; Russian French Spanish German Italian Japanese: DTS, 6 ch, 755 kbps; English(Commentary): AC3, 6 ch, 448 kbps AC3, 2 ch, 224 kbps
Subtitles: English, Russian
Genre: Biography | Drama | Nominated for 1 Oscar. Another 2 wins & 15 nominations

A love story between influential filmmaker Alfred Hitchcock and wife Alma Reville during the filming of 像桴?(1960) in 1959.

Director: Sacha Gervasi
Writers: John J. McLaughlin (screenplay), Stephen Rebello (book)
Stars: Anthony Hopkins, Helen Mirren, Scarlett Johansson

In 1959, Alfred Hitchcock and his wife, Alma, are at the top of their creative game as filmmakers amid disquieting insinuations about it being time to retire. To recapture his youth's artistic daring, Alfred decides his next film will adapt the lurid horror novel, Psycho, over everyone's misgivings. Unfortunately, as Alfred self-finances and labors on this film, Alma finally loses patience with his roving eye and controlling habits with his actresses. When an ambitious friend lures her to collaborate on a work of their own, the resulting marital tension colors Alfred's work even as the novel's inspiration haunts his dreams.

General
Unique ID : 180415044238426985160200604316509164533 (0x87BAAC71D08B9EB3ACE80BF4F01053F5)
Complete name : D:Htchc.12.7p.All1.mkv
Format : Matroska
Format version : Version 4 / Version 2
File size : 7.99 GiB
Duration : 1h 38mn
Overall bit rate : 11.6 Mbps
Movie name : Avaxhome.cc
Encoded date : UTC 2014-02-26 03:42:32
Writing application : mkvmerge v6.3.0 ('You can't stop me!') built on Jun 28 2013 20:09:41
Writing library : libebml v1.3.0 + libmatroska v1.4.0

Video
ID : 1
Format : AVC
Format/Info : Advanced Video Codec
Format profile : [email protected]
Format settings, CABAC : Yes
Format settings, ReFrames : 10 frames
Codec ID : V_MPEG4/ISO/AVC
Duration : 1h 38mn
Bit rate : 4 836 Kbps
Width : 1 280 pixels
Height : 534 pixels
Display aspect ratio : 2.40:1
Frame rate mode : Constant
Frame rate : 23.976 fps
Color space : YUV
Chroma subsampling : 4:2:0
Bit depth : 8 bits
Scan type : Progressive
Bits/(Pixel*Frame) : 0.295
Stream size : 3.17 GiB (40%)
Title : Hitchcock (2012)
Writing library : x264 core 128 r2216+698 b3c1019
Encoding settings : cabac=1 / ref=10 / deblock=1:-3:-3 / analyse=0x3:0x113 / me=umh / subme=10 / psy=1 / fade_compensate=0.00 / psy_rd=1.10:0.10 / mixed_ref=1 / me_range=32 / chroma_me=1 / trellis=2 / 8x8dct=1 / cqm=0 / deadzone=21,11 / fast_pskip=0 / chroma_qp_offset=-2 / threads=12 / lookahead_threads=2 / sliced_threads=0 / nr=0 / decimate=1 / interlaced=0 / bluray_compat=0 / constrained_intra=0 / fgo=0 / bframes=6 / b_pyramid=2 / b_adapt=2 / b_bias=0 / direct=3 / weightb=1 / open_gop=0 / weightp=2 / keyint=250 / keyint_min=23 / scenecut=40 / intra_refresh=0 / rc_lookahead=40 / rc=2pass / mbtree=0 / bitrate=4836 / ratetol=1.0 / qcomp=0.70 / qpmin=0 / qpmax=69 / qpstep=4 / cplxblur=20.0 / qblur=0.5 / vbv_maxrate=40000 / vbv_bufsize=30000 / nal_hrd=none / ip_ratio=1.40 / pb_ratio=1.30 / aq=2:0.90
Language : English
Default : Yes
Forced : No

Audio #1
ID : 2
Format : DTS
Format/Info : Digital Theater Systems
Mode : 16
Format settings, Endianness : Big
Codec ID : A_DTS
Duration : 1h 38mn
Bit rate mode : Constant
Bit rate : 1 509 Kbps
Channel(s) : 6 channels
Channel positions : Front: L C R, Side: L R, LFE
Sampling rate : 48.0 KHz
Bit depth : 24 bits
Compression mode : Lossy
Delay relative to video : 11ms
Stream size : 1.04 GiB (13%)
Language : English
Default : Yes
Forced : No

Audio #2
ID : 8
Format : DTS
Format/Info : Digital Theater Systems
Mode : 16
Format settings, Endianness : Big
Codec ID : A_DTS
Duration : 1h 38mn
Bit rate mode : Constant
Bit rate : 768 Kbps
Channel(s) : 6 channels
Channel positions : Front: L C R, Side: L R, LFE
Sampling rate : 48.0 KHz
Bit depth : 24 bits
Compression mode : Lossy
Stream size : 540 MiB (7%)
Language : Russian
Default : No
Forced : No

Audio #3
ID : 9
Format : DTS
Format/Info : Digital Theater Systems
Mode : 16
Format settings, Endianness : Big
Codec ID : A_DTS
Duration : 1h 38mn
Bit rate mode : Constant
Bit rate : 768 Kbps
Channel(s) : 6 channels
Channel positions : Front: L C R, Side: L R, LFE
Sampling rate : 48.0 KHz
Bit depth : 24 bits
Compression mode : Lossy
Stream size : 540 MiB (7%)
Language : French
Default : No
Forced : No

Audio #4
ID : 10
Format : DTS
Format/Info : Digital Theater Systems
Mode : 16
Format settings, Endianness : Big
Codec ID : A_DTS
Duration : 1h 38mn
Bit rate mode : Constant
Bit rate : 768 Kbps
Channel(s) : 6 channels
Channel positions : Front: L C R, Side: L R, LFE
Sampling rate : 48.0 KHz
Bit depth : 24 bits
Compression mode : Lossy
Stream size : 540 MiB (7%)
Language : Spanish
Default : No
Forced : No

Audio #5
ID : 11
Format : DTS
Format/Info : Digital Theater Systems
Mode : 16
Format settings, Endianness : Big
Codec ID : A_DTS
Duration : 1h 38mn
Bit rate mode : Constant
Bit rate : 768 Kbps
Channel(s) : 6 channels
Channel positions : Front: L C R, Side: L R, LFE
Sampling rate : 48.0 KHz
Bit depth : 24 bits
Compression mode : Lossy
Stream size : 540 MiB (7%)
Language : German
Default : No
Forced : No

Audio #6
ID : 12
Format : DTS
Format/Info : Digital Theater Systems
Mode : 16
Format settings, Endianness : Big
Codec ID : A_DTS
Duration : 1h 38mn
Bit rate mode : Constant
Bit rate : 768 Kbps
Channel(s) : 6 channels
Channel positions : Front: L C R, Side: L R, LFE
Sampling rate : 48.0 KHz
Bit depth : 24 bits
Compression mode : Lossy
Stream size : 540 MiB (7%)
Language : Italian
Default : No
Forced : No

Audio #7
ID : 13
Format : DTS
Format/Info : Digital Theater Systems
Mode : 16
Format settings, Endianness : Big
Codec ID : A_DTS
Duration : 1h 38mn
Bit rate mode : Constant
Bit rate : 768 Kbps
Channel(s) : 6 channels
Channel positions : Front: L C R, Side: L R, LFE
Sampling rate : 48.0 KHz
Bit depth : 24 bits
Compression mode : Lossy
Stream size : 540 MiB (7%)
Language : Japanese
Default : No
Forced : No

Audio #8
ID : 14
Format : AC-3
Format/Info : Audio Coding 3
Mode extension : CM (complete main)
Format settings, Endianness : Big
Codec ID : A_AC3
Duration : 1h 38mn
Bit rate mode : Constant
Bit rate : 448 Kbps
Channel(s) : 6 channels
Channel positions : Front: L C R, Side: L R, LFE
Sampling rate : 48.0 KHz
Bit depth : 16 bits
Compression mode : Lossy
Stream size : 315 MiB (4%)
Title : Commentary
Language : English
Default : No
Forced : No

Audio #9
ID : 15
Format : AC-3
Format/Info : Audio Coding 3
Mode extension : CM (complete main)
Format settings, Endianness : Big
Codec ID : A_AC3
Duration : 1h 38mn
Bit rate mode : Constant
Bit rate : 224 Kbps
Channel(s) : 2 channels
Channel positions : Front: L R
Sampling rate : 48.0 KHz
Bit depth : 16 bits
Compression mode : Lossy
Stream size : 158 MiB (2%)
Title : Commentary
Language : English
Default : No
Forced : No

Text #1
ID : 3
Format : UTF-8
Codec ID : S_TEXT/UTF8
Codec ID/Info : UTF-8 Plain Text
Language : English
Default : No
Forced : No

Text #2
ID : 4
Format : UTF-8
Codec ID : S_TEXT/UTF8
Codec ID/Info : UTF-8 Plain Text
Title : SDH
Language : English
Default : No
Forced : No

Text #3
ID : 5
Format : UTF-8
Codec ID : S_TEXT/UTF8
Codec ID/Info : UTF-8 Plain Text
Title : SDH_COLOR
Language : English
Default : No
Forced : No

Text #4
ID : 6
Format : UTF-8
Codec ID : S_TEXT/UTF8
Codec ID/Info : UTF-8 Plain Text
Language : Russian
Default : No
Forced : No

Text #5
ID : 7
Format : UTF-8
Codec ID : S_TEXT/UTF8
Codec ID/Info : UTF-8 Plain Text
Title : Commentary
Language : Russian
Default : No
Forced : No

Menu
00:00:00.000 : en:00:00:00.000
00:02:26.730 : en:00:02:26.730
00:05:17.108 : en:00:05:17.108
00:08:41.146 : en:00:08:41.146
00:12:26.162 : en:00:12:26.162
00:14:41.380 : en:00:14:41.380
00:19:07.396 : en:00:19:07.396
00:20:56.839 : en:00:20:56.839
00:23:48.677 : en:00:23:48.677
00:25:14.221 : en:00:25:14.221
00:27:13.423 : en:00:27:13.423
00:31:10.452 : en:00:31:10.452
00:32:15.809 : en:00:32:15.809
00:34:21.726 : en:00:34:21.726
00:37:30.123 : en:00:37:30.123
00:39:06.553 : en:00:39:06.553
00:43:22.975 : en:00:43:22.975
00:45:50.998 : en:00:45:50.998
00:49:19.498 : en:00:49:19.498
00:52:54.797 : en:00:52:54.797
00:58:12.072 : en:00:58:12.072
01:00:32.838 : en:01:00:32.838
01:03:56.458 : en:01:03:56.458
01:10:03.866 : en:01:10:03.866
01:15:35.114 : en:01:15:35.114
01:19:40.818 : en:01:19:40.818
01:22:38.495 : en:01:22:38.495
01:23:54.238 : en:01:23:54.238
01:25:57.069 : en:01:25:57.069
01:28:13.413 : en:01:28:13.413
01:29:46.131 : en:01:29:46.131
01:31:38.493 : en:01:31:38.493

Screenshots (click to enlarge to original size):

http://i58.fastpic.ru/big/2014/0301/f8/a9ae2d293b84bebe285a8afa29fb04f8.jpg
http://i33.fastpic.ru/big/2014/0301/31/8c4ae37111819b27d8409928f3a15d31.jpg
http://i33.fastpic.ru/big/2014/0301/00/ffa27699f8bad926105dc97b2b056500.jpg
http://i33.fastpic.ru/big/2014/0301/9f/ff60d22623feb669259d11d31aee429f.jpg
http://i60.fastpic.ru/big/2014/0301/f4/4e01687892f07dcae69b9886077074f4.jpg


DOWNLOAD LINKS:
Buy Premium From My Links To Get Resumable Support & Max Speed & To Support Me


http://i.imgur.com/LMuItG0.png

1ton1.Hitchcock...2012.part01.rar
1ton1.Hitchcock...2012.part02.rar
1ton1.Hitchcock...2012.part03.rar
1ton1.Hitchcock...2012.part04.rar
1ton1.Hitchcock...2012.part05.rar
1ton1.Hitchcock...2012.part06.rar
1ton1.Hitchcock...2012.part07.rar
1ton1.Hitchcock...2012.part08.rar
1ton1.Hitchcock...2012.part09.rar
1ton1.Hitchcock...2012.part10.rar
1ton1.Hitchcock...2012.part11.rar
1ton1.Hitchcock...2012.part12.rar
1ton1.Hitchcock...2012.part13.rar
1ton1.Hitchcock...2012.part14.rar
1ton1.Hitchcock...2012.part15.rar
1ton1.Hitchcock...2012.part16.rar
1ton1.Hitchcock...2012.part17.rar
1ton1.Hitchcock...2012.part18.rar
1ton1.Hitchcock...2012.part19.rar
1ton1.Hitchcock...2012.part20.rar
1ton1.Hitchcock...2012.part21.rar
1ton1.Hitchcock...2012.part22.rar
1ton1.Hitchcock...2012.part23.rar
1ton1.Hitchcock...2012.part24.rar
1ton1.Hitchcock...2012.part25.rar
1ton1.Hitchcock...2012.part26.rar
1ton1.Hitchcock...2012.part27.rar
1ton1.Hitchcock...2012.part28.rar
1ton1.Hitchcock...2012.part29.rar
1ton1.Hitchcock...2012.part30.rar
1ton1.Hitchcock...2012.part31.rar
1ton1.Hitchcock...2012.part32.rar
1ton1.Hitchcock...2012.part33.rar
1ton1.Hitchcock...2012.part34.rar


http://rapidgator.net/images/pics/170_1.gif

1ton1.Hitchcock...2012.part01.rar.html
1ton1.Hitchcock...2012.part02.rar.html
1ton1.Hitchcock...2012.part03.rar.html
1ton1.Hitchcock...2012.part04.rar.html
1ton1.Hitchcock...2012.part05.rar.html
1ton1.Hitchcock...2012.part06.rar.html
1ton1.Hitchcock...2012.part07.rar.html
1ton1.Hitchcock...2012.part08.rar.html
1ton1.Hitchcock...2012.part09.rar.html
1ton1.Hitchcock...2012.part10.rar.html
1ton1.Hitchcock...2012.part11.rar.html
1ton1.Hitchcock...2012.part12.rar.html
1ton1.Hitchcock...2012.part13.rar.html
1ton1.Hitchcock...2012.part14.rar.html
1ton1.Hitchcock...2012.part15.rar.html
1ton1.Hitchcock...2012.part16.rar.html
1ton1.Hitchcock...2012.part17.rar.html
1ton1.Hitchcock...2012.part18.rar.html
1ton1.Hitchcock...2012.part19.rar.html
1ton1.Hitchcock...2012.part20.rar.html
1ton1.Hitchcock...2012.part21.rar.html
1ton1.Hitchcock...2012.part22.rar.html
1ton1.Hitchcock...2012.part23.rar.html
1ton1.Hitchcock...2012.part24.rar.html
1ton1.Hitchcock...2012.part25.rar.html
1ton1.Hitchcock...2012.part26.rar.html
1ton1.Hitchcock...2012.part27.rar.html
1ton1.Hitchcock...2012.part28.rar.html
1ton1.Hitchcock...2012.part29.rar.html
1ton1.Hitchcock...2012.part30.rar.html
1ton1.Hitchcock...2012.part31.rar.html
1ton1.Hitchcock...2012.part32.rar.html
1ton1.Hitchcock...2012.part33.rar.html
1ton1.Hitchcock...2012.part34.rar.html

Download Free From
http://i.imgur.com/JhRgXwv.png
1ton1.Hitchcock...2012.part01.rar
1ton1.Hitchcock...2012.part02.rar
1ton1.Hitchcock...2012.part03.rar
1ton1.Hitchcock...2012.part04.rar
1ton1.Hitchcock...2012.part05.rar
1ton1.Hitchcock...2012.part06.rar
1ton1.Hitchcock...2012.part07.rar
1ton1.Hitchcock...2012.part08.rar
1ton1.Hitchcock...2012.part09.rar
1ton1.Hitchcock...2012.part10.rar
1ton1.Hitchcock...2012.part11.rar
1ton1.Hitchcock...2012.part12.rar
1ton1.Hitchcock...2012.part13.rar
1ton1.Hitchcock...2012.part14.rar
1ton1.Hitchcock...2012.part15.rar
1ton1.Hitchcock...2012.part16.rar
1ton1.Hitchcock...2012.part17.rar
1ton1.Hitchcock...2012.part18.rar
1ton1.Hitchcock...2012.part19.rar
1ton1.Hitchcock...2012.part20.rar
1ton1.Hitchcock...2012.part21.rar
1ton1.Hitchcock...2012.part22.rar
1ton1.Hitchcock...2012.part23.rar
1ton1.Hitchcock...2012.part24.rar
1ton1.Hitchcock...2012.part25.rar
1ton1.Hitchcock...2012.part26.rar
1ton1.Hitchcock...2012.part27.rar
1ton1.Hitchcock...2012.part28.rar
1ton1.Hitchcock...2012.part29.rar
1ton1.Hitchcock...2012.part30.rar
1ton1.Hitchcock...2012.part31.rar
1ton1.Hitchcock...2012.part32.rar
1ton1.Hitchcock...2012.part33.rar
1ton1.Hitchcock...2012.part34.rar

Links are Interchangeable - No Password - Single Extraction
Direct Download

Tags: Hitchcock
Cudaimovies In Sex | Software Wave Alchemy Bass Pedals Kontakt Magnetrixx | Mail Setsuyo Co In Loces | Best House Progressivedanc E Hits Indir | Amelie Fortunaq Uot | Keller Environmental Geology th Edition Ebook Rk | Latest Kannada Sex Sto Ries | Woodman Casting X Russia Online | How To Active Windows Single Language Build | Bailey Love Surgery Download | Guy Gowan Why Channels Downloads | Russian Pod Descargar | Alma And Stefan Live | Windows Build Torrent | Gibbscam V Rlmsever Ssq | Adobe Creative Suite Production Premium Cs X X Eng Torrent | Normal Version Public Notes Terms Of Service Rk Rspodrjfkbdvisq Rk Rsguvvf | Perry Mason Season | Animal Sex Free Iphone | Sharepoint Server Enterprise Serial Key Number Rk Rs vphtwqwny

Hitchcock 砧麝铌 2012 Download via Hotfile Rapidshare Fileserve Megaupload & FileSonic, Hitchcock 砧麝铌 2012 free torrent downloads included crack, serial, keygen.


Add comments

Your Name:
Your E-Mail:

Security Code:
Include security image CAPCHA.
update code
Insert Code: