Non Stop 2014 HDCAM AC3 XviD D3LBOY

Download Now


http://i33.fastpic.ru/big/2014/0306/cc/bbcb8381d5855715bd55aeaa4d09e1cc.jpg
Non Stop 2014 HDCAM AC3 XviD D3LBOY
| 946.21 MB
File: Non Stop 2014 HDCAM AC3 XviD D3LBOY.avi
Size: 928418378 bytes (885.41 MiB), duration: 01:40:10, avg.bitrate: 1236 kb/s
Audio: ac3, 48000 Hz, stereo, 448 kb/s
Video: mpeg4, yuv420p, 720x400, 25.00 fps(r)

iMDB iNFO

Bill Marks is a former cop who after dealing with his daughter's death by drinking, is now an air marshal. While on a flight from London to New York, Marks gets a text telling him that unless 150 million dollars is deposited to an off shore account within 20 minutes someone will die. He tries to tell the other air marshal, Hammond but Hammond doesn't believe him.

Title:Non-Stop
Year:2014
Rating:7.5
Genre:Action / Mystery / Thriller
Director:Jaume Collet-Serra
Cast:Liam Neeson / Julianne Moore / Scoot McNairy / Michelle Dockery / Nate Parker / Corey Stoll / Lupita Nyong'o / Omar Metwally / Jason Butler Harner / Linus Roache / Shea Whigham / Anson Mount / Quinn McColgan / Corey Hawkins / Frank Deal
http://i60.fastpic.ru/big/2014/0306/b0/7e8b663015b055fa7401d104d44056b0.jpg

NFo Notes

http://i33.fastpic.ru/big/2014/0306/92/796785b3dbff59b57de6128350f83292.jpg

http://www.imdb.com/title/tt2024469/
An air marshal springs into action during a transatlantic flight after receiving a series of text messages that put his fellow passengers at risk unless the airline transfers 0 million into an off-shore account.
Format : AVI
Format/Info : Audio Video Interleave
File size : 885 MiB
Duration : 1h 40mn
Overall bit rate : 1 236 Kbps
Writing library : VirtualDub build 30091/release
Video
ID : 0
Format : MPEG-4 Visual
Format profile : Advanced [email protected]
Format settings, BVOP : 1
Format settings, QPel : No
Format settings, GMC : No warppoints
Format settings, Matrix : Default (H.263)
Muxing mode : Packed bitstream
Codec ID : XVID
Codec ID/Hint : XviD
Duration : 1h 40mn
Bit rate : 778 Kbps
Width : 720 pixels
Height : 400 pixels
Display aspect ratio : 16:9
Frame rate : 25.000 fps
Color space : YUV
Chroma subsampling : 4:2:0
Bit depth : 8 bits
Scan type : Progressive
Compression mode : Lossy
Bits/(Pixel*Frame) : 0.108
Stream size : 557 MiB (63%)
Writing library : XviD 1.2.1 (UTC 2008-12-04)
Audio
ID : 1
Format : AC-3
Format/Info : Audio Coding 3
Mode extension : CM (complete main)
Format settings, Endianness : Big
Codec ID : 2000
Duration : 1h 40mn
Bit rate mode : Constant
Bit rate : 448 Kbps
Channel count : 2 channels
Channel positions : Front: L R
Sampling rate : 48.0 KHz
Bit depth : 16 bits
Compression mode : Lossy
Stream size : 321 MiB (36%)
Alignment : Aligned on interleaves
Interleave, duration : 40 ms (1.00 video frame)
Interleave, preload duration : 512 ms
http://i60.fastpic.ru/big/2014/0306/6a/c97ebf08b0bd41aac9dfd1b2e879a76a.jpg
http://i33.fastpic.ru/big/2014/0306/3a/2ae7985e5bc18f3f8240671d8b0bed3a.jpg
http://i57.fastpic.ru/big/2014/0306/20/8b3a3a43d0725549d186f1658de23620.jpg
http://i58.fastpic.ru/big/2014/0306/29/4cd51ffcd266efac2b72f58a4909eb29.jpg
http://i33.fastpic.ru/big/2014/0306/2d/bc6432e8938764e14bb006cecd6f172d.jpg
http://i57.fastpic.ru/big/2014/0306/64/8261dac58ccf384f8ac6113b157b7764.jpg
http://i33.fastpic.ru/big/2014/0306/be/fce056845494c6ef1f7349b6a963d9be.jpg

Source:
Non-Stop 2014 HDCAM READNFO XviD - MATiNE [Big Thanks]
Greetz:
To All
Special Thanks:
ACAB :bow:

Buy Premium Account and Download it at High Speed Before They Get Deleted

If you like My contribution Then Please support me by getting an premium account


Direct Download

Non Stop 2014 HDCAM AC3 XviD D3LBOY Download via Hotfile Rapidshare Fileserve Megaupload & FileSonic, Non Stop 2014 HDCAM AC3 XviD D3LBOY free torrent downloads included crack, serial, keygen.


Add comments

Your Name:
Your E-Mail:

Security Code:
Include security image CAPCHA.
update code
Insert Code: