Macon County Line 1974

Download Now

http://i59.fastpic.ru/big/2014/0322/4d/0464631775253704963671fa36be5d4d.jpg
Macon County Line (1974)
DVDRip | AVI / XVID, 1660 Kbps | 720x416 | 1h 28mn | 1.09 GB
English: MP3, 32 Kbps (2 ch)
Genre: Drama | Action

A vengeful Southern sheriff is out for blood after his wife is brutally killed by a pair of drifters. Low-budget film set in Georgia in 1953 and based on fact.

imdb

General
Complete name : Macon County Line 1974 DVDRip.avi
Format : AVI
Format/Info : Audio Video Interleave
File size : 1.09 GiB
Duration : 1h 28mn
Overall bit rate : 1 773 Kbps
Writing application : VirtualDubMod 1.5.4.1 (build 2178/release)
Writing library : VirtualDubMod build 2178/release

Video
ID : 0
Format : MPEG-4 Visual
Format profile : Advanced [email protected]
Format settings, BVOP : Yes
Format settings, QPel : No
Format settings, GMC : No warppoints
Format settings, Matrix : Custom
Codec ID : XVID
Codec ID/Hint : XviD
Duration : 1h 28mn
Bit rate : 1 660 Kbps
Width : 720 pixels
Height : 416 pixels
Display aspect ratio : 1.731
Frame rate : 23.976 fps
Color space : YUV
Chroma subsampling : 4:2:0
Bit depth : 8 bits
Scan type : Progressive
Compression mode : Lossy
Bits/(Pixel*Frame) : 0.231
Stream size : 1.02 GiB (94%)
Writing library : XviD 1.1.2 (UTC 2006-11-01)

Audio
ID : 1
Format : MPEG Audio
Format version : Version 1
Format profile : Layer 3
Mode : Joint stereo
Mode extension : MS Stereo
Codec ID : 55
Codec ID/Hint : MP3
Duration : 1h 28mn
Bit rate mode : Constant
Bit rate : 32.0 Kbps
Channel count : 2 channels
Sampling rate : 48.0 KHz
Compression mode : Lossy
Stream size : 63.4 MiB (6%)
Alignment : Aligned on interleaves
Interleave, duration : 24 ms (0.58 video frame)
Interleave, preload duration : 160 ms
Writing library : LAME3.97
Language : English

screenshots:
http://i59.fastpic.ru/big/2014/0322/63/09308524fd8b8cc5e91954354dc56e63.jpg
http://i33.fastpic.ru/big/2014/0322/3a/2f1a2b67830a876f2a531e55671f463a.jpg
http://i33.fastpic.ru/big/2014/0322/d1/7ec680b72bede7c8dee9ab4f81f5a6d1.jpg


DOWNLOAD LINKS:
Buy Premium From My Links To Get Resumable Support,Max Speed & Support Me


http://i.imgur.com/LMuItG0.png

http://ryushare.com/d248ojwktkcc/4hrhi.Macon.County.Line.1974.DVDRip.part1.rar
http://ryushare.com/oquh2hh7l2n2/4hrhi.Macon.County.Line.1974.DVDRip.part1.rev
http://ryushare.com/ey2rdy3q47fz/4hrhi.Macon.County.Line.1974.DVDRip.part2.rar
http://ryushare.com/7i1bd7ry2xr2/4hrhi.Macon.County.Line.1974.DVDRip.part3.rar


http://rapidgator.net/images/pics/170_1.gif

Buy Premium Account before downloading for Very Fast Download Speed
http://rapidgator.net/file/75223465571c6c856ee34c69e38f9044/4hrhi.Macon.County.Line.1974.DVDRip.part1.rar.html
http://rapidgator.net/file/cdea9f36d6c8e6ff6b5a2dffdd007661/4hrhi.Macon.County.Line.1974.DVDRip.part1.rev.html
http://rapidgator.net/file/19a155769020e60d6f5ffa73d19c0603/4hrhi.Macon.County.Line.1974.DVDRip.part2.rar.html
http://rapidgator.net/file/9cc8bc51857dcdd2c260b81abb70feaf/4hrhi.Macon.County.Line.1974.DVDRip.part3.rar.html

Download Free From
http://i.imgur.com/voceTl9.png
http://crisshare.com/ayzokq4phkss/4hrhi.Macon.County.Line.1974.DVDRip.part1.rar.html
http://crisshare.com/c6xcsi1ix6or/4hrhi.Macon.County.Line.1974.DVDRip.part1.rev.html
http://crisshare.com/yuc5jo3lxi28/4hrhi.Macon.County.Line.1974.DVDRip.part2.rar.html
http://crisshare.com/p4anej6k4s5y/4hrhi.Macon.County.Line.1974.DVDRip.part3.rar.html

Download Free From
http://i.imgur.com/vSEg4Iy.png
http://www.uploadable.ch/file/qu6aRv5jbgpT/4hrhi.Macon.County.Line.1974.DVDRip.part1.rar
http://www.uploadable.ch/file/UeHnHFhxEWzV/4hrhi.Macon.County.Line.1974.DVDRip.part1.rev
http://www.uploadable.ch/file/dZYC896P9h2Y/4hrhi.Macon.County.Line.1974.DVDRip.part2.rar
http://www.uploadable.ch/file/MMXJEuZn4Utd/4hrhi.Macon.County.Line.1974.DVDRip.part3.rar

Links are Interchangeable - No Password - Single Extraction
Direct Download

Tags: County
Animals Sax Ved Oes | Bioshock Adult Sex Full Version | Licence Sketchup Free | Abbi Secraa Screensaver For Your Computer | Anydown Info Down Dalei De Dld Tarz An X Shame Of J Ane Dvd Mp | F Tv Sex Fotaescom | Japanese Long Sex Film Rk Rsx | Indian Best Sex Vidio Key | Putlocker Game Of Thrones S | Daleide Dld Anydown Info Down Hit H Ot Brother Si St Er Sex Wap | Freedownload Photo | Marvadi Sex In | Ramsterdam Drum | Megafactories Motorcycle | Ips Officer Ki Chudai | Siberian Mouses Masha Picture Sets | Farming Simulator Titanium Edition Multiplayer | Descargar Western Europe Tomtom | Autocad Keygen Only Rar | Crack Photoshop Cc

Macon County Line 1974 Download via Hotfile Rapidshare Fileserve Megaupload & FileSonic, Macon County Line 1974 free torrent downloads included crack, serial, keygen.


Add comments

Your Name:
Your E-Mail:

Security Code:
Include security image CAPCHA.
update code
Insert Code: