Silent Night Bloody Night 1972

Download Now
Silent Night, Bloody Night (1972)
DVDRip | Lang: English | AVI | 720x544 | XviD, @ 1960 Kbps, 29.970 fps | 01:21:22 | Subs: None | 1.23 GB
Audio: AC3, 48000 Hz, stereo, 192 Kbps
Genre: Horror, Mystery, Thriller | USA

"Wilford Butler returns home on Christmas Eve and his house had been turned into a mental institution for the criminally insane. But the day of his return, he is set on fire and dies. The towns people believe his death was an accident, and the institution-house is later closed down. Wilford leaves the house to his grandson Jeffrey. A few years later, Jeffrey finally decides to sell this grandfather's house, but the towns people including the Mayor have mixed feelings on keeping people away from the house, especially when a serial killer escapes from another institution and finds refuge there. The killer makes frightening phone calls and kills anyone coming near the house. But what does the killer have in common with what happened to Wilford Butler years before?"

IMDB 5.3/10 from 1494 users

Director: Theodore Gershuny
Writer: Theodore Gershuny, Jeffrey Konvitz (screenplay), Jeffrey Konvitz (story), Ira Teller (screenplay), Ira Teller (story)
Actors: Patrick O'Neal, James Patterson, Mary Woronov, Astrid Heeren
Rated: R
Runtime: 81 min

More Screenshots:

Complete name : I:Silent Night Bloody Night.avi
Format : AVI
Format/Info : Audio Video Interleave
File size : 1.23 GiB
Duration : 1h 21mn
Overall bit rate : 2 161 Kbps
Writing application : VirtualDubMod (build 2178/release)
Writing library : VirtualDubMod build 2178/release

ID : 0
Format : MPEG-4 Visual
Format profile : Advanced [email protected]
Format settings, BVOP : 1
Format settings, QPel : No
Format settings, GMC : No warppoints
Format settings, Matrix : Default (H.263)
Muxing mode : Packed bitstream
Codec ID : XVID
Codec ID/Hint : XviD
Duration : 1h 21mn
Bit rate : 1 960 Kbps
Width : 720 pixels
Height : 544 pixels
Display aspect ratio : 4:3
Frame rate : 29.970 fps
Color space : YUV
Chroma subsampling : 4:2:0
Bit depth : 8 bits
Scan type : Progressive
Compression mode : Lossy
Bits/(Pixel*Frame) : 0.167
Stream size : 1.11 GiB (91%)
Writing library : XviD 1.2.0.dev47 (UTC 2006-11-01)

ID : 1
Format : AC-3
Format/Info : Audio Coding 3
Mode extension : CM (complete main)
Format settings, Endianness : Big
Codec ID : 2000
Duration : 1h 21mn
Bit rate mode : Constant
Bit rate : 192 Kbps
Channel(s) : 2 channels
Channel positions : Front: L R
Sampling rate : 48.0 KHz
Bit depth : 16 bits
Compression mode : Lossy
Stream size : 112 MiB (9%)
Alignment : Split accross interleaves
Interleave, duration : 67 ms (2.00 video frames)
Interleave, preload duration : 500 ms

Buy Premium From My Links To Get Resumable Support,Max Speed & Support Me

Buy Premium Account before downloading for Very Fast Download Speed

Links are Interchangeable - No Password - Single Extraction
Direct Download

Tags: Bloody, Silent
Sj News Full Package | Xnxx Photo Sexy Youtube | Windows Build X Torrent | Preteen Models Foto | How To Get Into Chaterbate Password Shows | From Lust Til Dawn | Blutengel Black Symphonies An Orchestral Journey Rar | Kidnap Rape Video | Nxgx Persian | What Is Windows Ver Build | Public Notes Normal Version Login Rsada Rk Rsj O S | Exam Ref Configuring Advanced Windows Server Services Torrent | Having Trouble While Logging In Public Notes Rk Rsbk p | Normal Version Terms Of Service Public Notes Rk Rsbemdozjr Rk Rsxhobu | Blouisses Theme Ohia Rk Rsgo Rk Rs Spwvdckjliji | Nymphomaniac Volume Dvdrip Xvid Rar Passwords Rk Rsmxwdzbtot Huanbhwuzd | Pixvenue Siberian Mouses Sharetext | Partsrapido Online | White Corporate Showcase Free Download Zip

Silent Night Bloody Night 1972 Download via Hotfile Rapidshare Fileserve Megaupload & FileSonic, Silent Night Bloody Night 1972 free torrent downloads included crack, serial, keygen.

Add comments

Your Name:
Your E-Mail:

Security Code:
Include security image CAPCHA.
update code
Insert Code: