Silent Night Bloody Night 1972

Download Now

http://i59.fastpic.ru/big/2014/0329/12/a2f0fd9f3b3b7511943cf3155b2c5312.jpg
Silent Night, Bloody Night (1972)
DVDRip | Lang: English | AVI | 720x544 | XviD, @ 1960 Kbps, 29.970 fps | 01:21:22 | Subs: None | 1.23 GB
Audio: AC3, 48000 Hz, stereo, 192 Kbps
Genre: Horror, Mystery, Thriller | USA

"Wilford Butler returns home on Christmas Eve and his house had been turned into a mental institution for the criminally insane. But the day of his return, he is set on fire and dies. The towns people believe his death was an accident, and the institution-house is later closed down. Wilford leaves the house to his grandson Jeffrey. A few years later, Jeffrey finally decides to sell this grandfather's house, but the towns people including the Mayor have mixed feelings on keeping people away from the house, especially when a serial killer escapes from another institution and finds refuge there. The killer makes frightening phone calls and kills anyone coming near the house. But what does the killer have in common with what happened to Wilford Butler years before?"

IMDB 5.3/10 from 1494 users

Director: Theodore Gershuny
Writer: Theodore Gershuny, Jeffrey Konvitz (screenplay), Jeffrey Konvitz (story), Ira Teller (screenplay), Ira Teller (story)
Actors: Patrick O'Neal, James Patterson, Mary Woronov, Astrid Heeren
Rated: R
Runtime: 81 min

http://i33.fastpic.ru/big/2014/0329/c1/5d02f19546be949f1f773573fefccdc1.jpg

More Screenshots:
http://i59.fastpic.ru/big/2014/0329/ec/b5af82920a99528cc182f8aaf4d8b5ec.jpg


General
Complete name : I:Silent Night Bloody Night.avi
Format : AVI
Format/Info : Audio Video Interleave
File size : 1.23 GiB
Duration : 1h 21mn
Overall bit rate : 2 161 Kbps
Writing application : VirtualDubMod 1.5.4.1 (build 2178/release)
Writing library : VirtualDubMod build 2178/release

Video
ID : 0
Format : MPEG-4 Visual
Format profile : Advanced [email protected]
Format settings, BVOP : 1
Format settings, QPel : No
Format settings, GMC : No warppoints
Format settings, Matrix : Default (H.263)
Muxing mode : Packed bitstream
Codec ID : XVID
Codec ID/Hint : XviD
Duration : 1h 21mn
Bit rate : 1 960 Kbps
Width : 720 pixels
Height : 544 pixels
Display aspect ratio : 4:3
Frame rate : 29.970 fps
Color space : YUV
Chroma subsampling : 4:2:0
Bit depth : 8 bits
Scan type : Progressive
Compression mode : Lossy
Bits/(Pixel*Frame) : 0.167
Stream size : 1.11 GiB (91%)
Writing library : XviD 1.2.0.dev47 (UTC 2006-11-01)

Audio
ID : 1
Format : AC-3
Format/Info : Audio Coding 3
Mode extension : CM (complete main)
Format settings, Endianness : Big
Codec ID : 2000
Duration : 1h 21mn
Bit rate mode : Constant
Bit rate : 192 Kbps
Channel(s) : 2 channels
Channel positions : Front: L R
Sampling rate : 48.0 KHz
Bit depth : 16 bits
Compression mode : Lossy
Stream size : 112 MiB (9%)
Alignment : Split accross interleaves
Interleave, duration : 67 ms (2.00 video frames)
Interleave, preload duration : 500 ms

DOWNLOAD LINKS:
Buy Premium From My Links To Get Resumable Support,Max Speed & Support Me


http://i.imgur.com/LMuItG0.png

http://ryushare.com/3tf0sxfcus1m/8g4l7.Silent.Night.Bloody.Night.1972.part1.rar
http://ryushare.com/4d3tcnw8y7lw/8g4l7.Silent.Night.Bloody.Night.1972.part2.rar
http://ryushare.com/88xxa5ayfq1k/8g4l7.Silent.Night.Bloody.Night.1972.part3.rar


http://rapidgator.net/images/pics/170_1.gif

Buy Premium Account before downloading for Very Fast Download Speed
http://rapidgator.net/file/f0231103348ae9cfc03a96e5e68f6181/8g4l7.Silent.Night.Bloody.Night.1972.part1.rar.html
http://rapidgator.net/file/d2cae4df9291ac0f81a27ce1cbb00123/8g4l7.Silent.Night.Bloody.Night.1972.part2.rar.html
http://rapidgator.net/file/49a33edda48b4c7a16ed99ab80264a53/8g4l7.Silent.Night.Bloody.Night.1972.part3.rar.html

http://i.imgur.com/vSEg4Iy.png
http://www.uploadable.ch/file/9j5Cfz9CR3PS/8g4l7.Silent.Night.Bloody.Night.1972.part1.rar
http://www.uploadable.ch/file/a7NGQXydba6d/8g4l7.Silent.Night.Bloody.Night.1972.part2.rar
http://www.uploadable.ch/file/FrjYdFYECdg8/8g4l7.Silent.Night.Bloody.Night.1972.part3.rar

http://i.imgur.com/z6o2SnP.png
http://www.kingfiles.net/58ge2lj2g1wu/8g4l7.Silent.Night.Bloody.Night.1972.part1.rar
http://www.kingfiles.net/p63bcrf32s78/8g4l7.Silent.Night.Bloody.Night.1972.part2.rar
http://www.kingfiles.net/qc31seh0i3pf/8g4l7.Silent.Night.Bloody.Night.1972.part3.rar

Links are Interchangeable - No Password - Single Extraction
Direct Download

Tags: Bloody, Silent
Sandra Orlow Torrent | Logo Real Madrid Vector | Encyclopedia Mechanical Torrent | Chord Progression Vst | New Dr Najeeb Lectures | Stranded Titulky | Lean Six Sigma Dvd | Mep Modeler Archicad Crack Mac Download | The Sewing Book By Alison Smith | Windows Built Pro Iso | Bitdefender Full Pack Incl Keygen Rk | Full Naughty America | G Data Crack Rk Rspeuxhaivgdl | Fce Past Papers Pack Torrent | Led Zeppelin Throwing The Wild Seeds | Ousweetheart B G Download | Depfile Torrent | Ndrive Para Windows Ce | Horse Mating With Human | Ba Pass Movie Download Mp

Silent Night Bloody Night 1972 Download via Hotfile Rapidshare Fileserve Megaupload & FileSonic, Silent Night Bloody Night 1972 free torrent downloads included crack, serial, keygen.


Add comments

Your Name:
Your E-Mail:

Security Code:
Include security image CAPCHA.
update code
Insert Code: