Autumn Blood 2013

Download Now

Autumn Blood (2013)
DVDRip | AVI / XVID, 1574 Kbps | 720x304 | 1h 36mn | 1.36 GB | English: AC3, 448 Kbps (6 ch)
Genre: Drama | Thriller

High in the Mountains on a secluded farm a widowed mother dies leaving her two children alone and orphaned. Fearing being taken away and split up they keep their mother's death a secret and survive off the land with no one to rely on but each other. The sixteen year old sister is one with nature, innocent, and unaware of the evils that exist in mankind. Her ten year old brother is traumatized and mute from witnessing a disturbing incident years earlier (the death of his father) involving the town's Mayor. As the girl transitions into womanhood a harsh brutality destroys her innocence when savage hunters led by the Mayor's son attack and rape her. A social worker from a distant city arrives to investigate but ultimately it is the siblings who must come of age to protect each other and survive.

imdb - 2 wins

Complete name : 5rFF-ablood.avi
Format : AVI
Format/Info : Audio Video Interleave
File size : 1.36 GiB
Duration : 1h 36mn
Overall bit rate : 2 032 Kbps
Writing application : VirtualDubMod (build 2540/release)
Writing library : VirtualDubMod build 2540/release

ID : 0
Format : MPEG-4 Visual
Format profile : Advanced [email protected]
Format settings, BVOP : Yes
Format settings, QPel : No
Format settings, GMC : No warppoints
Format settings, Matrix : Default (H.263)
Codec ID : XVID
Codec ID/Hint : XviD
Duration : 1h 36mn
Bit rate : 1 574 Kbps
Width : 720 pixels
Height : 304 pixels
Display aspect ratio : 2.35:1
Frame rate : 25.000 fps
Color space : YUV
Chroma subsampling : 4:2:0
Bit depth : 8 bits
Scan type : Progressive
Compression mode : Lossy
Bits/(Pixel*Frame) : 0.288
Stream size : 1.06 GiB (77%)
Writing library : XviD 1.2.1 (UTC 2008-12-04)

ID : 1
Format : AC-3
Format/Info : Audio Coding 3
Mode extension : CM (complete main)
Format settings, Endianness : Big
Codec ID : 2000
Duration : 1h 36mn
Bit rate mode : Constant
Bit rate : 448 Kbps
Channel count : 6 channels
Channel positions : Front: L C R, Side: L R, LFE
Sampling rate : 48.0 KHz
Bit depth : 16 bits
Compression mode : Lossy
Stream size : 308 MiB (22%)
Alignment : Split accross interleaves
Interleave, duration : 40 ms (1.00 video frame)
Interleave, preload duration : 500 ms


Buy Premium From My Links To Get Resumable Support,Max Speed & Support Me

Buy Premium Account before downloading for Very Fast Download Speed

Links are Interchangeable - No Password - Single Extraction
Direct Download

Tags: Autumn
Dragons Die Wechetr Von | Piratestreaming Nynfomaniac Streaming | Fast Furious Full Movie Rar | Windows Pro Build Activation Key | Download Person To Person Level | Fingerprint Airprint Serial | Football Manager Skidrow Crack Fixed By Fury Rapid | Bodypump Choreography Notes | Jane Marie Wikipe | Coreldraw X Rk Rs | Resharper Single User Serial | Depfile Jailbait Sites | Daniel Gerhartz Torrent | Anna Horror Game Mac | Igo Android x | Vladmodels Yo Av | st Studios Siberian Hd Torrent | Akabur Witch Training | Erd Commander Msdart Torrent | Pthc Videos Collection Pthc

Autumn Blood 2013 Download via Hotfile Rapidshare Fileserve Megaupload & FileSonic, Autumn Blood 2013 free torrent downloads included crack, serial, keygen.

Add comments

Your Name:
Your E-Mail:

Security Code:
Include security image CAPCHA.
update code
Insert Code: