Autumn Blood 2013

Download Now

http://i33.fastpic.ru/big/2014/0403/3a/e624569a9618afc51da188bd7a1d013a.jpg

Autumn Blood (2013)
DVDRip | AVI / XVID, 1574 Kbps | 720x304 | 1h 36mn | 1.36 GB | English: AC3, 448 Kbps (6 ch)
Genre: Drama | Thriller

High in the Mountains on a secluded farm a widowed mother dies leaving her two children alone and orphaned. Fearing being taken away and split up they keep their mother's death a secret and survive off the land with no one to rely on but each other. The sixteen year old sister is one with nature, innocent, and unaware of the evils that exist in mankind. Her ten year old brother is traumatized and mute from witnessing a disturbing incident years earlier (the death of his father) involving the town's Mayor. As the girl transitions into womanhood a harsh brutality destroys her innocence when savage hunters led by the Mayor's son attack and rape her. A social worker from a distant city arrives to investigate but ultimately it is the siblings who must come of age to protect each other and survive.

imdb - 2 wins

General
Complete name : 5rFF-ablood.avi
Format : AVI
Format/Info : Audio Video Interleave
File size : 1.36 GiB
Duration : 1h 36mn
Overall bit rate : 2 032 Kbps
Writing application : VirtualDubMod 1.5.10.2 (build 2540/release)
Writing library : VirtualDubMod build 2540/release

Video
ID : 0
Format : MPEG-4 Visual
Format profile : Advanced [email protected]
Format settings, BVOP : Yes
Format settings, QPel : No
Format settings, GMC : No warppoints
Format settings, Matrix : Default (H.263)
Codec ID : XVID
Codec ID/Hint : XviD
Duration : 1h 36mn
Bit rate : 1 574 Kbps
Width : 720 pixels
Height : 304 pixels
Display aspect ratio : 2.35:1
Frame rate : 25.000 fps
Color space : YUV
Chroma subsampling : 4:2:0
Bit depth : 8 bits
Scan type : Progressive
Compression mode : Lossy
Bits/(Pixel*Frame) : 0.288
Stream size : 1.06 GiB (77%)
Writing library : XviD 1.2.1 (UTC 2008-12-04)

Audio
ID : 1
Format : AC-3
Format/Info : Audio Coding 3
Mode extension : CM (complete main)
Format settings, Endianness : Big
Codec ID : 2000
Duration : 1h 36mn
Bit rate mode : Constant
Bit rate : 448 Kbps
Channel count : 6 channels
Channel positions : Front: L C R, Side: L R, LFE
Sampling rate : 48.0 KHz
Bit depth : 16 bits
Compression mode : Lossy
Stream size : 308 MiB (22%)
Alignment : Split accross interleaves
Interleave, duration : 40 ms (1.00 video frame)
Interleave, preload duration : 500 ms

screenshots:

http://i58.fastpic.ru/big/2014/0403/e7/6238a9951967d4f61f27b256877931e7.jpg

http://i33.fastpic.ru/big/2014/0403/cc/b3836029167173bf61d88261b25a90cc.jpg

http://i58.fastpic.ru/big/2014/0403/43/68188a9eca5ef71fe88c2bcf1ad4e843.jpg


DOWNLOAD LINKS:
Buy Premium From My Links To Get Resumable Support,Max Speed & Support Me


http://i.imgur.com/LMuItG0.png

http://ryushare.com/bj76jhcfpm2p/9x0ty.5rFFablood.part1.rar
http://ryushare.com/0nvf6mdy44q6/9x0ty.5rFFablood.part1.rev
http://ryushare.com/4o2jwxsupniz/9x0ty.5rFFablood.part2.rar
http://ryushare.com/f66rcemhy4ek/9x0ty.5rFFablood.part3.rar
http://ryushare.com/nbdmupai38vl/9x0ty.5rFFablood.part4.rar


http://rapidgator.net/images/pics/170_1.gif

Buy Premium Account before downloading for Very Fast Download Speed
http://rapidgator.net/file/feaf3e72611bc066f98f1fbabe7aedd0/9x0ty.5rFFablood.part1.rar.html
http://rapidgator.net/file/85103bfdb10b6378811d7a8d22f74f1d/9x0ty.5rFFablood.part1.rev.html
http://rapidgator.net/file/fabeffba982d1c9b0752d1d84c7e8cdf/9x0ty.5rFFablood.part2.rar.html
http://rapidgator.net/file/a49db92cc49743b222ca6e8f35df0df8/9x0ty.5rFFablood.part3.rar.html
http://rapidgator.net/file/5d3a1da2e980611fe3f5cf668a9037e7/9x0ty.5rFFablood.part4.rar.html

http://i.imgur.com/8tqh9T9.png
https://www.oboom.com/7UBPHB1D/9x0ty.5rFFablood.part1.rar
https://www.oboom.com/DWAM3636/9x0ty.5rFFablood.part1.rev
https://www.oboom.com/P0J8P99U/9x0ty.5rFFablood.part2.rar
https://www.oboom.com/3RZ90UDE/9x0ty.5rFFablood.part3.rar
https://www.oboom.com/RSS47ZUH/9x0ty.5rFFablood.part4.rar

http://i.imgur.com/vSEg4Iy.png
http://www.uploadable.ch/file/Y3g2AnfQ7mMD/9x0ty.5rFFablood.part1.rar
http://www.uploadable.ch/file/Rswb2U5ThmNb/9x0ty.5rFFablood.part1.rev
http://www.uploadable.ch/file/BncjgrQdYVRz/9x0ty.5rFFablood.part2.rar
http://www.uploadable.ch/file/8Cs33s6pz56g/9x0ty.5rFFablood.part3.rar
http://www.uploadable.ch/file/2bvDTt74UR2j/9x0ty.5rFFablood.part4.rar

Links are Interchangeable - No Password - Single Extraction
Direct Download

Tags: Autumn
Answers To Krugman And Wells Macroeconomics | Latest Username And Password Of Nod | Free Large Video Leora Masturbate | Actress Imadie With Wide And Tall | Playboy Tv Swing Season Porn | How To Train Your Rider Porn | Tv Do Dvd Nd W Boot Rk Rs Zvzyhbkcznthr | Windows Pro With Media Center Build License Key | Ehtrosli Hikoyalar | Activation Key For Windows Update January | Caruso St John El Croquis Free Download | Windows Enterprise Edition X | Teen Beauty Fitness Torrent | Navigation Plus Rns D | Hotel Transylvania Mavis Dracula Pics Sexy Nude | Manageengine Flow Analyzer Torrent | Home Finance Mac Os Maverick | Etabs Full Indir Rk Rslsrvi | Graveyard Carz Holley Where Is She

Autumn Blood 2013 Download via Hotfile Rapidshare Fileserve Megaupload & FileSonic, Autumn Blood 2013 free torrent downloads included crack, serial, keygen.


Add comments

Your Name:
Your E-Mail:

Security Code:
Include security image CAPCHA.
update code
Insert Code: