Mirror Images 1992

Download Now

http://i33.fastpic.ru/big/2014/0404/26/5d89725879133c01818caecd97ba1c26.jpg

Mirror Images (1992)
DVDRip | Lang: English | AVI | 640x480 | XviD, @ 1136 Kbps, 25.000 fps | 01:29:32 | Subs: None | 895.88 MB
Audio: AC3, 48000 Hz, stereo, 256 Kbps
Genre: Erotic, Thriller | USA

"A beautiful redhead beauty, named Kaitlin, seeking to get away from her boring wealthy life and her uncommunicative husband Jeffrey, assumes the identity of her outgoing, blond, identical twin sister, Shauna, when she leaves town and Kaitlin soon becomes embroiled with a psychotic serial killer whom is stalking Shauna."


IMDB 4.3/10 from 179 users

Director: Gregory Dark
Writer: Georges des Esseintes
Actors: Delia Sheppard, Jeff Conaway, Richard Arbolino, John O'Hurley
Rated: Unrated
Runtime: 93 min

http://i57.fastpic.ru/big/2014/0404/76/dc3ae3c5cf82a600bec296478402b676.jpg

More Screenshots:

http://i59.fastpic.ru/big/2014/0404/53/e40fa4fe7928bd023cc637ad60a29f53.jpg


General
Complete name : I:Mirror Images.avi
Format : AVI
Format/Info : Audio Video Interleave
File size : 896 MiB
Duration : 1h 29mn
Overall bit rate : 1 399 Kbps
Writing application : VirtualDubMod 1.5.4.1 (build 2178/release)
Writing library : VirtualDubMod build 2178/release

Video
ID : 0
Format : MPEG-4 Visual
Format profile : Advanced [email protected]
Format settings, BVOP : 1
Format settings, QPel : No
Format settings, GMC : No warppoints
Format settings, Matrix : Custom
Codec ID : XVID
Codec ID/Hint : XviD
Duration : 1h 29mn
Bit rate : 1 136 Kbps
Width : 640 pixels
Height : 480 pixels
Display aspect ratio : 4:3
Frame rate : 25.000 fps
Color space : YUV
Chroma subsampling : 4:2:0
Bit depth : 8 bits
Scan type : Progressive
Compression mode : Lossy
Bits/(Pixel*Frame) : 0.148
Stream size : 728 MiB (81%)
Writing library : XviD 1.2.1 (UTC 2008-12-04)

Audio
ID : 1
Format : AC-3
Format/Info : Audio Coding 3
Mode extension : CM (complete main)
Format settings, Endianness : Big
Codec ID : 2000
Duration : 1h 29mn
Bit rate mode : Constant
Bit rate : 256 Kbps
Channel(s) : 2 channels
Channel positions : Front: L R
Sampling rate : 48.0 KHz
Bit depth : 16 bits
Compression mode : Lossy
Delay relative to video : 79ms
Stream size : 164 MiB (18%)
Alignment : Split accross interleaves
Interleave, duration : 96 ms (2.40 video frames)
Interleave, preload duration : 96 ms

DOWNLOAD LINKS:
Buy Premium From My Links To Get Resumable Support,Max Speed & Support Me


Links are Interchangeable - No Password - Single Extraction
Direct Download

Tags: Images, Mirror
Ajax Translation Revolution Lite Jquery Plugin Warez Download | Pre Teen Collection | Visio To Visio Converter | Eset Antivirusbusine Ss Edetion User Name Password | Audio Cleaning Lab Serial | Free d Lolicon Gifs | Real Aunty Photos | Photoshop Desk Psd Free | Hit Me Down Sonny Eats Everything Remix Serato | Rescue Boot Disk For Windows | Hana Model Nude Vlad | Judas Priest The Essential Mega | Caribe Mix Piratebay Rk Rsxhwk | Extra Small Username And Password | Euro Truck Simulator Highly Co | Makemkv Planes Fire | Kapringen Zippyshare Rk Rs Rk Rscsov | Daleide Dld Wavepad Code | Preteen Nude Photos

Mirror Images 1992 Download via Hotfile Rapidshare Fileserve Megaupload & FileSonic, Mirror Images 1992 free torrent downloads included crack, serial, keygen.


Add comments

Your Name:
Your E-Mail:

Security Code:
Include security image CAPCHA.
update code
Insert Code: