Channel 5 The Limbless Mountaineer 2014

Download Now


http://i58.fastpic.ru/big/2014/0406/d0/b96b13909840f804522d1821355c41d0.jpg
Channel 5 - The Limbless Mountaineer (2014)
HDTV | 1280x720 | .MKV/AVC @ 2594 Kbps | 45mn 25s | Audio: English AC3 384 kbps, 6 channels | Subs: None | 987 MiB
Genre: Documentary

"In January 1999, Jamie and his friend and climbing partner Jamie Fisher became stranded in a violent blizzard at the top of a mountain in the French Alps. Perched on an icy ledge with no food and water, and unable tomove, they were exposed to the elements for five days. Jamie Andrew was eventually rescued by helicopter in one of the most dramatic missions in the history of the Alps. But his friend was less fortunate - by the time the rescue services found them, Jamie Fisher had frozen to death. Jamie was rushed to hospital with hypothermia and severe frostbite. A few days later, surgeons had no option but to amputate his limbs. For many this would mean the end of all hope, but not for Jamie. With the help of physiotherapy and prosthetics he not only learned to walk again, but within a year began snowboarding. Then came marathons and triathlons, and, perhaps inevitably, he returned to mountaineering."


General
Unique ID : 0 (0x0)
Complete name : the.limbless.mountaineer.mkv
Format : Matroska
Format version : Version 2
File size : 987 MiB
Duration : 45mn 25s
Overall bit rate : 3 039 Kbps
Encoded date : UTC 2010-02-22 21:41:29
Writing application : no_variable_data
Writing library : no_variable_data

Video
ID : 1
Format : AVC
Format/Info : Advanced Video Codec
Format profile : [email protected]
Format settings, CABAC : Yes
Format settings, ReFrames : 5 frames
Codec ID : V_MPEG4/ISO/AVC
Duration : 45mn 25s
Bit rate : 2 594 Kbps
Width : 1 280 pixels
Height : 720 pixels
Display aspect ratio : 16:9
Frame rate mode : Constant
Frame rate : 25.000 fps
Color space : YUV
Chroma subsampling : 4:2:0
Bit depth : 8 bits
Scan type : Progressive
Bits/(Pixel*Frame) : 0.113
Stream size : 843 MiB (85%)
Writing library : x264 core 142 r2409 d6b4e63
Encoding settings : cabac=1 / ref=5 / deblock=1:0:0 / analyse=0x3:0x113 / me=umh / subme=8 / psy=1 / psy_rd=1.00:0.00 / mixed_ref=1 / me_range=16 / chroma_me=1 / trellis=1 / 8x8dct=1 / cqm=0 / deadzone=21,11 / fast_pskip=1 / chroma_qp_offset=-2 / threads=12 / lookahead_threads=2 / sliced_threads=0 / nr=0 / decimate=1 / interlaced=0 / bluray_compat=0 / constrained_intra=0 / bframes=3 / b_pyramid=2 / b_adapt=2 / b_bias=0 / direct=3 / weightb=1 / open_gop=0 / weightp=2 / keyint=250 / keyint_min=25 / scenecut=40 / intra_refresh=0 / rc_lookahead=50 / rc=crf / mbtree=1 / crf=21.0 / qcomp=0.60 / qpmin=0 / qpmax=69 / qpstep=4 / ip_ratio=1.40 / aq=1:1.00
Default : Yes
Forced : No
Matrix coefficients : BT.709

Audio
ID : 2
Format : AC-3
Format/Info : Audio Coding 3
Mode extension : CM (complete main)
Format settings, Endianness : Big
Codec ID : A_AC3
Duration : 45mn 25s
Bit rate mode : Constant
Bit rate : 384 Kbps
Channel(s) : 6 channels
Channel positions : Front: L C R, Side: L R, LFE
Sampling rate : 48.0 KHz
Bit depth : 16 bits
Compression mode : Lossy
Stream size : 125 MiB (13%)
Language : English
Default : Yes
Forced : No

Screenshots:

http://i58.fastpic.ru/big/2014/0406/10/b06d2445c54fd94174eb9a5a70f72910.jpg

http://i59.fastpic.ru/big/2014/0406/aa/38bedcf6ac865ea9fb3653b08a2ccbaa.jpg

http://i33.fastpic.ru/big/2014/0406/f9/80ad0e9762b10800d5af300abd8ff0f9.jpg

http://i58.fastpic.ru/big/2014/0406/33/47fd0d75c5bbf3948be86b998268f133.jpg


DOWNLOAD LINKS:
Buy Premium From My Links To Get Resumable Support,Max Speed & Support Me


Links are Interchangeable - No Password - Single Extraction
Direct Download

Tags: Mountaineer, Limbless, Channel
Wall Street Journal Book Reviews | How To Create Rescue Disc Windows | Practical Node Js Download Torrent | Cfa Schweser Notes Download | Mlg Simulator Unblocked | Test Bank Chapter And Santrock | Hd Xvedeo Indian | Activation Key For Windows Pro | Key Root Master Lenov Ru | Windows Enterprise Product Key Rodoved Graphic Vectors Digital Led Alphabets | Preteen Nonude Brazilians | Adriana And Daniel Real Life Sex | Sonnefreunde Index | Normal Version Public Notes Terms Of Service Rk Rswtpgecn Dtyfi | Public Agent Free Account | Free Showtime Anytime Code | Alina Balletstar Full Videos | Android Visual Studio Plugin | Fileviewpro Registration Key | The Purge English Subtitle Free Download

Channel 5 The Limbless Mountaineer 2014 Download via Hotfile Rapidshare Fileserve Megaupload & FileSonic, Channel 5 The Limbless Mountaineer 2014 free torrent downloads included crack, serial, keygen.


Add comments

Your Name:
Your E-Mail:

Security Code:
Include security image CAPCHA.
update code
Insert Code: