La venexiana 1986

Download Now

http://i60.fastpic.ru/big/2014/0408/a8/e791f60011d1b279d26689d7f67d8ca8.jpg

La venexiana / The Venetian Woman (1986)
DVDRip | Lang: Italian | MKV | 700x572 | AVC, @ 1842 Kbps, 25.000 fps | 01:23:10 | Subs: English, Italian, (Hardcoded) | 1.21 GB
Audio: AC3, 48000 Hz, stereo, 192 Kbps
Genre: Drama, Romance | Italy

"Venice, sixteenth century. Giulio, a foreign gentleman spends a memorable night in the city where he meets and beds two beautiful women. They are Angela, a widowed lady, and Valeria, whose husband has left for Florence."


IMDB 4.9/10 from 239 users

Director: Mauro Bolognini
Writer: Massimo Franciosa, Mauro Bolognini
Actors: Laura Antonelli, Monica Guerritore, Jason Connery, Claudio Amendola
Rated: N/A
Runtime: 102 min

http://i33.fastpic.ru/big/2014/0408/bb/3fa467aa09a825fe6f41813c44beb1bb.jpg

More Screenshots:

http://i57.fastpic.ru/big/2014/0408/20/2af3c78cf2f71f1cd7b72971ab590120.jpg



General
Unique ID : 185696801806236723823190567342593207148 (0x8BB3E732B65511B4A8F0B3E5056AEB6C)
Complete name : I:La Venexiana 1986.mkv
Format : Matroska
Format version : Version 4 / Version 2
File size : 1.21 GiB
Duration : 1h 23mn
Overall bit rate : 2 075 Kbps
Encoded date : UTC 2013-11-30 19:40:24
Writing application : mkvmerge v6.5.0 ('Isn't she lovely') built on Oct 20 2013 12:50:05
Writing library : libebml v1.3.0 + libmatroska v1.4.1

Video
ID : 1
Format : AVC
Format/Info : Advanced Video Codec
Format profile : [email protected]
Format settings, CABAC : Yes
Format settings, ReFrames : 9 frames
Codec ID : V_MPEG4/ISO/AVC
Duration : 1h 23mn
Bit rate : 1 842 Kbps
Width : 700 pixels
Height : 572 pixels
Display aspect ratio : 16:9
Frame rate mode : Constant
Frame rate : 25.000 fps
Color space : YUV
Chroma subsampling : 4:2:0
Bit depth : 8 bits
Scan type : Progressive
Bits/(Pixel*Frame) : 0.184
Stream size : 1.07 GiB (89%)
Writing library : x264 core 130 r2273 b3065e6
Encoding settings : cabac=1 / ref=9 / deblock=1:-3:-3 / analyse=0x3:0x133 / me=umh / subme=9 / psy=1 / psy_rd=1.00:0.00 / mixed_ref=1 / me_range=24 / chroma_me=1 / trellis=2 / 8x8dct=1 / cqm=0 / deadzone=21,11 / fast_pskip=0 / chroma_qp_offset=-2 / threads=12 / lookahead_threads=1 / sliced_threads=0 / nr=0 / decimate=1 / interlaced=0 / bluray_compat=0 / constrained_intra=0 / bframes=6 / b_pyramid=2 / b_adapt=2 / b_bias=0 / direct=3 / weightb=1 / open_gop=0 / weightp=2 / keyint=250 / keyint_min=25 / scenecut=40 / intra_refresh=0 / rc_lookahead=60 / rc=crf / mbtree=1 / crf=19.0 / qcomp=0.60 / qpmin=0 / qpmax=69 / qpstep=4 / ip_ratio=1.40 / aq=1:1.00
Language : English
Default : Yes
Forced : No
Color primaries : BT.601 PAL
Transfer characteristics : BT.709
Matrix coefficients : BT.601

Audio
ID : 2
Format : AC-3
Format/Info : Audio Coding 3
Mode extension : CM (complete main)
Format settings, Endianness : Big
Codec ID : A_AC3
Duration : 1h 23mn
Bit rate mode : Constant
Bit rate : 192 Kbps
Channel(s) : 2 channels
Channel positions : Front: L R
Sampling rate : 48.0 KHz
Bit depth : 16 bits
Compression mode : Lossy
Stream size : 114 MiB (9%)
Language : Italian
Default : Yes
Forced : No

Text #1
ID : 3
Format : VobSub
Muxing mode : zlib
Codec ID : S_VOBSUB
Codec ID/Info : The same subtitle format used on DVDs
Language : Italian
Default : No
Forced : No

Text #2
ID : 4
Format : UTF-8
Codec ID : S_TEXT/UTF8
Codec ID/Info : UTF-8 Plain Text
Language : English
Default : Yes
Forced : No

Menu
00:00:00.000 : en:Chapter 1
00:11:22.880 : en:Chapter 2
00:14:45.320 : en:Chapter 3
00:23:23.640 : en:Chapter 4
00:27:52.200 : en:Chapter 5
00:39:51.360 : en:Chapter 6
00:42:18.000 : en:Chapter 7
00:47:46.280 : en:Chapter 8
00:50:30.600 : en:Chapter 9
00:53:59.800 : en:Chapter 10
00:57:34.000 : en:Chapter 11
01:01:02.160 : en:Chapter 12
01:08:27.600 : en:Chapter 13
01:14:52.280 : en:Chapter 14
01:20:05.960 : en:Chapter 15

DOWNLOAD LINKS:
Buy Premium From My Links To Get Resumable Support,Max Speed & Support Me


Links are Interchangeable - No Password - Single Extraction
Direct Download

Tags: Venexiana
Download Themeforest Color Life Admin | Free Crack For Ironcad X | Daleide Dld Wapin M Alayalam Serial Actress Sex Vi Deos | How To Get Rid Of Props On Pro Presenter | English Rayp gp Sex Videos | Lumfile House Season Download Rk | Build Public Notes Normal Version Login Lion Rsadac I Lxhvekbtbeda Rsadati Od | Ccna Routing And Switching Epub Files | Vector Pattern | Psd Dressing Coat Free Download | Download Minecraft Pocket Edition Free For Iphone | Neat Video Vegas Serial | Telagu Yang Aunty Fuckimng Mp Downlod | Download The Raid Redemption Full Movie | Free Download Mom Fucked Son gp | Superstar O Drum Kits Bundle Torrent | Photo Pedo Torrent | Momms Bang Teens | Games Similar To Space Engineers On Xbox | Infixpro Editor Free Download

La venexiana 1986 Download via Hotfile Rapidshare Fileserve Megaupload & FileSonic, La venexiana 1986 free torrent downloads included crack, serial, keygen.


Add comments

Your Name:
Your E-Mail:

Security Code:
Include security image CAPCHA.
update code
Insert Code: