Southern Comfort 2001

Download Now

Southern Comfort (2001)

Southern Comfort (2001)
DVDrip | 512x384 | AVI/XviD @ 976 Kbps | 87mn | Audio: English MP3 128 kbps, 2 channels | Subs: None | 701 MB
Genre: Documentary
filF

Every scene testifies to both the enormous difficulties they face and the grace, humor, and sheer will with which they take it all on. It's not surprising Southern Comfort has won numerous awards, including the Grand Jury Prize at the Sundance Film Festival.

More info

Video
ID : 0
Format : MPEG-4 Visual
Format profile : [email protected]
Format settings, BVOP : Yes
Format settings, QPel : No
Format settings, GMC : No warppoints
Format settings, Matrix : Default (H.263)
Codec ID : XVID
Codec ID/Hint : XviD
Duration : 1h 27mn
Bit rate : 976 Kbps
Width : 512 pixels
Height : 384 pixels
Display aspect ratio : 4:3
Frame rate : 23.976 fps
Color space : YUV
Chroma subsampling : 4:2:0
Bit depth : 8 bits
Scan type : Progressive
Compression mode : Lossy
Bits/(Pixel*Frame) : 0.207
Stream size : 613 MiB (87%)
Writing library : XviD 0.0.09 (UTC 2003-03-25)

Audio
ID : 1
Format : MPEG Audio
Format version : Version 1
Format profile : Layer 3
Mode : Joint stereo
Mode extension : MS Stereo
Codec ID : 55
Codec ID/Hint : MP3
Duration : 1h 27mn
Bit rate mode : Variable
Bit rate : 128 Kbps
Nominal bit rate : 140 Kbps
Channel(s) : 2 channels
Sampling rate : 48.0 KHz
Compression mode : Lossy
Stream size : 80.4 MiB (11%)
Alignment : Aligned on interleaves
Interleave, duration : 24 ms (0.58 video frame)
Interleave, preload duration : 492 ms
Writing library : LAME3.93
Encoding settings : -m j -V 4 -q 2 -lowpass 16.6 --abr 140

Southern Comfort (2001)

Southern Comfort (2001)



[/b]

Southern Comfort (2001)


[b]Buy Premium Before Download To Get Max Speed

Download From uploaded


http://uploaded.net/file/6dexs1jq/ND3le0.4pti0.Southern.Comfort.2001.part1.rar
http://uploaded.net/file/eu7fi2zd/ND3le0.4pti0.Southern.Comfort.2001.part2.rar


Download From Rapidgator


http://rapidgator.net/file/294696fd88a59a7e75a1572b50785776/ND3le0.4pti0.Southern.Comfort.2001.part1.rar.html
http://rapidgator.net/file/4cbb959b3802d84938ba48e6fd1c7162/ND3le0.4pti0.Southern.Comfort.2001.part2.rar.html
Direct Download

Tags: Comfort, Southern
Hirens Boot Cd Dlc Version With Mini Windows | Confidence Responsive Blog Fileserve | Country Blowjob Bryci | Proteus Walmart | Brutal Doom Repack Download | Desperate Amateurs Eligance | Violetta Noten Zu Den Sons | Torrent Printlife | Zbrush Character Sculpting Volume Download | Flicker Free Final Cut Pro X Torrent | Tamil Actress Simran Sex | English Movie Spartacus Download Mp Video | Intallation Password For Pes | Scaling Networks Version | Sexibl Fingering Rk Rsr | Kizumonogatari English Translation | Where Can I Download The Calendar With Images Of Sexual Positions | How Can I Crack Archicad | User Fstyhhfrcye

Southern Comfort 2001 Download via Hotfile Rapidshare Fileserve Megaupload & FileSonic, Southern Comfort 2001 free torrent downloads included crack, serial, keygen.


Add comments

Your Name:
Your E-Mail:

Security Code:
Include security image CAPCHA.
update code
Insert Code: