A Promise 2013

Download Now


A Promise (2013)
A Promise (2013)
HDRIP | AVI | 720?300 | [email protected] Kbps | English [email protected] Kbps | 6 channels | 01:38:26 | 1.2 GB
Genre: Drama | Romance


A romantic drama set in Germany just before WWI and centered on a married woman who falls in love with her husband's protege. Separated first by duties and then by the war, they pledge their devotion to one another.



General
Complete name : A.Promise.2013.HDRip.XviD.AC3-RARBG.avi
Format : AVI
Format/Info : Audio Video Interleave
File size : 1.27 GiB
Duration : 1h 38mn
Overall bit rate : 1 845 Kbps
Movie name : RARBG.COM - A.Promise.2013.HDRip.XviD.AC3-RARBG
Writing library : VirtualDub build 35491/release
Comment : RARBG.COM - A.Promise.2013.HDRip.XviD.AC3-RARBG

Video
ID : 0
Format : MPEG-4 Visual
Format profile : [email protected]
Format settings, BVOP : No
Format settings, QPel : No
Format settings, GMC : No warppoints
Format settings, Matrix : Default (H.263)
Codec ID : XVID
Codec ID/Hint : XviD
Duration : 1h 38mn
Bit rate : 1 387 Kbps
Width : 720 pixels
Height : 300 pixels
Display aspect ratio : 2.40:1
Frame rate : 24.000 fps
Color space : YUV
Chroma subsampling : 4:2:0
Bit depth : 8 bits
Scan type : Progressive
Compression mode : Lossy
Bits/(Pixel*Frame) : 0.268
Stream size : 977 MiB (75%)
Writing library : Lavc55.55.104

Audio
ID : 1
Format : AC-3
Format/Info : Audio Coding 3
Mode extension : CM (complete main)
Format settings, Endianness : Big
Codec ID : 2000
Duration : 1h 38mn
Bit rate mode : Constant
Bit rate : 448 Kbps
Channel(s) : 6 channels
Channel positions : Front: L C R, Side: L R, LFE
Sampling rate : 44.1 KHz
Bit depth : 16 bits
Compression mode : Lossy
Stream size : 315 MiB (24%)
Alignment : Aligned on interleaves
Interleave, duration : 35 ms (0.84 video frame)
Interleave, preload duration : 522 ms

Screenshots

A Promise (2013)
A Promise (2013)
A Promise (2013)

I recommends Buy premimum account for High speed+parallel downloads!

Direct Download

Tags: Promise
Dle Image Begin I Fastpic Ru Big fb | Shaunthiphopabs Utorrent | Propresenter For Windows Torrent Download | Mature And Child Porn | Mandala Dragons Die Reiter Von Berg | Tarzan X Movie Video | Tamil Fb Sex Kb Video Download | Lonely Pla Central Europe Edition | Bettina Zimmermann Wen | Album Ds For Mac Crack | Power Torrent | Pluralsight Single Page Apps Exercise Files Rsadax | Preteen Fannys Tubes | Animal P For Android Phones | Modifuckers Watch Free | Mastering Autodesk Inventor | Tins Nonude Magazines | Magic The Gathering Duels Of The Planeswalkers Se V r | Veneisseoutshop Ping | Force Rapevideo

A Promise 2013 Download via Hotfile Rapidshare Fileserve Megaupload & FileSonic, A Promise 2013 free torrent downloads included crack, serial, keygen.


Add comments

Your Name:
Your E-Mail:

Security Code:
Include security image CAPCHA.
update code
Insert Code: