Beneath the Harvest Sky 2013

Download Now

Beneath the Harvest Sky (2013)

Beneath the Harvest Sky (2013)
WEBrip | 1280x544 | AVI/XviD @ 3446 Kbps | 116mn | Audio: English AC3 384 kbps, 6 channels | Subs: None | 3.12 GB
Genre: Drama

The story of Casper (Emory Cohen) and Dominic (Callan McAuliffe) - two best friends that are fiercely loyal to one another, as they come of age in a small farming town in Maine. During harvest break, Casper is drawn into smuggling drugs across the Canadian border with his outlaw father, Clayton (Aidan Gillen). Meanwhile, Dominic works his final potato harvest, hoping to earn the money he needs to buy a car and take them away towards a better future. But with Casper's life unraveling before their eyes, their friendship and loyalty are put to the test as they are forced to mature and make very adult decisions that will forever alter the course of their lives.

More info

Video
ID : 0
Format : MPEG-4 Visual
Format profile : Advanced [email protected]
Format settings, BVOP : Yes
Format settings, QPel : No
Format settings, GMC : No warppoints
Format settings, Matrix : Default (H.263)
Muxing mode : Packed bitstream
Codec ID : XVID
Codec ID/Hint : XviD
Duration : 1h 56mn
Bit rate : 3 446 Kbps
Width : 1 280 pixels
Height : 544 pixels
Display aspect ratio : 2.35:1
Frame rate : 23.976 fps
Color space : YUV
Chroma subsampling : 4:2:0
Bit depth : 8 bits
Scan type : Progressive
Compression mode : Lossy
Bits/(Pixel*Frame) : 0.206
Stream size : 2.80 GiB (90%)
Writing library : XviD 1.2.1 (UTC 2008-12-04)

Audio
ID : 1
Format : AC-3
Format/Info : Audio Coding 3
Mode extension : CM (complete main)
Codec ID : 2000
Duration : 1h 56mn
Bit rate mode : Constant
Bit rate : 384 Kbps
Channel(s) : 6 channels
Channel positions : Front: L C R, Side: L R, LFE
Sampling rate : 48.0 KHz
Bit depth : 16 bits
Compression mode : Lossy
Stream size : 319 MiB (10%)
Alignment : Aligned on interleaves
Interleave, duration : 42 ms (1.00 video frame)
Interleave, preload duration : 512 ms

Beneath the Harvest Sky (2013)

Beneath the Harvest Sky (2013)



Beneath the Harvest Sky (2013)


Buy Premium Before Download To Get Max Speed


Download From Rapidgator


http://rapidgator.net/file/f55d4a8c83ca44c8b6b9a28ea44a345a/4XLzty.cht5l.Beneath.the.Harvest.Sky.2013.part1.rar.html
http://rapidgator.net/file/f328973003346e6d0c6c81641b15bfa1/4XLzty.cht5l.Beneath.the.Harvest.Sky.2013.part2.rar.html
http://rapidgator.net/file/2e2fc5ab3745bca954bc5418a01d1452/4XLzty.cht5l.Beneath.the.Harvest.Sky.2013.part3.rar.html
http://rapidgator.net/file/0281e89fbe9debe0a00276423a3498c7/4XLzty.cht5l.Beneath.the.Harvest.Sky.2013.part4.rar.html
http://rapidgator.net/file/e766519b263039359734dbbb54141aea/4XLzty.cht5l.Beneath.the.Harvest.Sky.2013.part5.rar.html
http://rapidgator.net/file/083ec7ade7056c207b5a5b02f9433b22/4XLzty.cht5l.Beneath.the.Harvest.Sky.2013.part6.rar.html
http://rapidgator.net/file/894460e05afc1dc254c4e6ade2a76651/4XLzty.cht5l.Beneath.the.Harvest.Sky.2013.part7.rar.html


Download From secureupload


http://www.secureupload.eu/lcj9ewrg8tgs/4XLzty.cht5l.Beneath.the.Harvest.Sky.2013.part1.rar
http://www.secureupload.eu/xwpwx38sw4jw/4XLzty.cht5l.Beneath.the.Harvest.Sky.2013.part2.rar
http://www.secureupload.eu/6ey7skpwvwok/4XLzty.cht5l.Beneath.the.Harvest.Sky.2013.part3.rar
http://www.secureupload.eu/hs874bkw4ad5/4XLzty.cht5l.Beneath.the.Harvest.Sky.2013.part4.rar
http://www.secureupload.eu/kuhospsihpv8/4XLzty.cht5l.Beneath.the.Harvest.Sky.2013.part5.rar
http://www.secureupload.eu/t2r8etamy457/4XLzty.cht5l.Beneath.the.Harvest.Sky.2013.part6.rar
http://www.secureupload.eu/8d17ljvbcf3k/4XLzty.cht5l.Beneath.the.Harvest.Sky.2013.part7.rar
Direct Download

Tags: Harvest, Beneath
Bioshock Little Sisters d Sex | Les Contes De La Nuit | Public Notes Normal Version Login Rsada Rk Rsbmg | Dehat Bhojpurisex Download | Bioshock Elizabeth Porn Video | Realifecam Leora And Paul Sex Videos | Fsp Ttl Torrent | Video In Bengali | Nymphomaniac English Subtitle Full | Film Rapunzel Romana | Noveltech Vocal Enhancer V Torrent | Jodi West Video Digital Online Library | India Village d Model Free Download | Public Notes Normal Version Login Rsada Rk Rsbwxuwqmxddf | Scaling A Network Torrent | Movieies With Incest Theme | Normal Version Public Notes Terms Of Service Rk Rsmt Rk Rsnvxjq | User Kutrgghjobgl | Quicken Deluxe For Windows

Beneath the Harvest Sky 2013 Download via Hotfile Rapidshare Fileserve Megaupload & FileSonic, Beneath the Harvest Sky 2013 free torrent downloads included crack, serial, keygen.


Add comments

Your Name:
Your E-Mail:

Security Code:
Include security image CAPCHA.
update code
Insert Code: