Beneath the Harvest Sky 2013

Download Now

Beneath the Harvest Sky (2013)

Beneath the Harvest Sky (2013)
WEBrip | 1280x544 | AVI/XviD @ 3446 Kbps | 116mn | Audio: English AC3 384 kbps, 6 channels | Subs: None | 3.12 GB
Genre: Drama

The story of Casper (Emory Cohen) and Dominic (Callan McAuliffe) - two best friends that are fiercely loyal to one another, as they come of age in a small farming town in Maine. During harvest break, Casper is drawn into smuggling drugs across the Canadian border with his outlaw father, Clayton (Aidan Gillen). Meanwhile, Dominic works his final potato harvest, hoping to earn the money he needs to buy a car and take them away towards a better future. But with Casper's life unraveling before their eyes, their friendship and loyalty are put to the test as they are forced to mature and make very adult decisions that will forever alter the course of their lives.

More info

ID : 0
Format : MPEG-4 Visual
Format profile : Advanced [email protected]
Format settings, BVOP : Yes
Format settings, QPel : No
Format settings, GMC : No warppoints
Format settings, Matrix : Default (H.263)
Muxing mode : Packed bitstream
Codec ID : XVID
Codec ID/Hint : XviD
Duration : 1h 56mn
Bit rate : 3 446 Kbps
Width : 1 280 pixels
Height : 544 pixels
Display aspect ratio : 2.35:1
Frame rate : 23.976 fps
Color space : YUV
Chroma subsampling : 4:2:0
Bit depth : 8 bits
Scan type : Progressive
Compression mode : Lossy
Bits/(Pixel*Frame) : 0.206
Stream size : 2.80 GiB (90%)
Writing library : XviD 1.2.1 (UTC 2008-12-04)

ID : 1
Format : AC-3
Format/Info : Audio Coding 3
Mode extension : CM (complete main)
Codec ID : 2000
Duration : 1h 56mn
Bit rate mode : Constant
Bit rate : 384 Kbps
Channel(s) : 6 channels
Channel positions : Front: L C R, Side: L R, LFE
Sampling rate : 48.0 KHz
Bit depth : 16 bits
Compression mode : Lossy
Stream size : 319 MiB (10%)
Alignment : Aligned on interleaves
Interleave, duration : 42 ms (1.00 video frame)
Interleave, preload duration : 512 ms

Beneath the Harvest Sky (2013)

Beneath the Harvest Sky (2013)

Beneath the Harvest Sky (2013)

Buy Premium Before Download To Get Max Speed

Download From Rapidgator

Download From secureupload
Direct Download

Tags: Harvest, Beneath
Maria Ryabushka | Ccie Collaboration Workbook Torrent Ipexpert | Free Vellama Sex Story | Having Trouble While Logging In Public Notes Rk Rsaeujxevh Rk Rs | Boks Armyanski | Hindi Sex Story Mom Son | Bikini Babes Etv Olivia | Dynamic Table Tennis Dvd Free Download | Sharepoint Server Enterprise Serial Key Number Rk Rsmwyq | Wps Activation Code | Ehtrosli Hikayalar | Statistics On Nonprofit Failure | Apnee Freeware X Force Autocad | Red Hat Enterprise Linux Iso Image Free Download Bit | Spiderman And White Tiger Sex Rk | Yeh Jawani Hai Deewani Full Movie English Subtitles | How To Reformat Mac Maverick Rk Rs | Frm Schweser Question Bank | Full Fkk Rochelle Movie

Beneath the Harvest Sky 2013 Download via Hotfile Rapidshare Fileserve Megaupload & FileSonic, Beneath the Harvest Sky 2013 free torrent downloads included crack, serial, keygen.

Add comments

Your Name:
Your E-Mail:

Security Code:
Include security image CAPCHA.
update code
Insert Code: