Enemies Closer 2013 DVDRip AC3 x264 MiLLENiUM

Download Now

Enemies Closer 2013 DVDRip AC3 x264 - MiLLENiUM
| 717.11 MB
File: Enemies Closer 2013 DVDRip AC3 x264 - MiLLENiUM.mkv
Size: 741426308 bytes (707.08 MiB), duration: 01:24:50, avg.bitrate: 1165 kb/s
Audio: ac3, 48000 Hz, 5:1 (eng)
Video: h264, yuv420p, 720x400, 23.98 fps(r)


Forest ranger and Ex-Navy SEAL Henry is forced by the drug cartel to help retrieve a major shipment of drugs which went missing on the US-Canadian border. While in the woods, he runs into a man who has a vendetta against him, but both men must struggle to escape the forest and defeat the cartel, while at odds and at knife's edge with each other.

Title:Enemies Closer
Director:Peter Hyams
Cast:Jean-Claude Van Damme / Orlando Jones / Tom Everett Scott / Linzey Cocker / Kristopher Van Varenberg / Zahary Baharov / Atanas Srebrev / Vlado Mihailov / Jonas Talkington / Hristo Mitzkov / Matt Medrano / Dimo Alexiev / Christopher Robbie / Reginal Varice / Teodor Tzolov


Enemies Closer 2013 DVDRip AC3 x264 - MiLLENiUM
Source...............: DVD5.NTSC-MASTER [THANKS]
IMDb Information.... : http://www.imdb.com/title/tt2395199/
Sample Included......: yes
Subtitles............: English Hardcoded for foreign parts only
Complete name : Enemies Closer 2013 DVDRip AC3 x264 - MiLLENiUM.mkv
Format : Matroska
Format version : Version 2
File size : 707 MiB
Duration : 1h 24mn
Overall bit rate mode : Variable
Overall bit rate : 1 165 Kbps
Encoded date : UTC 2013-11-28 23:23:52
Writing application : mkvmerge v6.5.0 ('Isn't she lovely') built on Oct 20 2013 12:50:05
Writing library : libebml v1.3.0 + libmatroska v1.4.1
ID : 1
Format : AVC
Format/Info : Advanced Video Codec
Format profile : [emailprotected]/* */
Format settings, CABAC : Yes
Format settings, ReFrames : 3 frames
Duration : 1h 24mn
Bit rate mode : Variable
Bit rate : 758 Kbps
Maximum bit rate : 40.0 Mbps
Width : 720 pixels
Height : 400 pixels
Display aspect ratio : 16:9
Frame rate mode : Constant
Frame rate : 23.976 fps
Color space : YUV
Chroma subsampling : 4:2:0
Bit depth : 8 bits
Scan type : Progressive
Bits/(Pixel*Frame) : 0.110
Stream size : 460 MiB (65%)
Writing library : x264 core 140 r2377 1ca7bb9
ID : 2
Format : AC-3
Format/Info : Audio Coding 3
Mode extension : CM (complete main)
Format settings, Endianness : Big
Codec ID : A_AC3
Duration : 1h 24mn
Bit rate mode : Constant
Bit rate : 384 Kbps
Channel(s) : 6 channels
Channel positions : Front: L C R, Side: L R, LFE
Sampling rate : 48.0 KHz
Bit depth : 16 bits
Compression mode : Lossy
Stream size : 233 MiB (33%)
Language : English
Default : Yes
Forced : No
Deep within a forest on the US-Canadian border, two sworn enemies must work together to escape a ruthless drug cartel hell-bent on retrieving a drug shipment which went missing there.

To all those who stay true to the game.

Buy Premium Account and Download it at High Speed Before They Get Deleted

If you like My contribution Then Please support me by getting an premium account

Direct Download

Tags: MiLLENiUM, DVDRip, Closer, Enemies
Kingpass Torrent | Expert Authors Article Directory All Rights Reserved Rk Rs Rk | North America Nt Map Update For Kenwood Msd | Payza Money Adder For Androids Mobiles | Big Shop Opencart Theme Download | Cody Microsoft Toolkit | Crack Autocad Architecture bit | Cisa Review Manual Torrent File Rk Rsqyjgomiilp | Ffhc Rebirth Apk | Nine Steps To Living Well Forever | Geting Voices Into Ilcone | Windows Enterprise Product Key Rodoved Magazine Adorn January February | Driver Booster Free Pro Edition Licenze Keylicenze Key | Body Balance Torrent | Ngesek Indonesia | Loopmasters Dubstep Monster Bass Vol | Absoft Pro Fortran | Medical S Altium Designer | Turbotax Premier And Deluxe Rar | Hot gp Sex In Library

Enemies Closer 2013 DVDRip AC3 x264 MiLLENiUM Download via Hotfile Rapidshare Fileserve Megaupload & FileSonic, Enemies Closer 2013 DVDRip AC3 x264 MiLLENiUM free torrent downloads included crack, serial, keygen.

Add comments

Your Name:
Your E-Mail:

Security Code:
Include security image CAPCHA.
update code
Insert Code: