The Bank Job 2008 Hybrid BRRip AC3 XviD Team V

Download Now


http://ipicture.ru/uploads/20140503/FhSaLrfV.jpg
The Bank Job 2008 Hybrid BRRip AC3 XviD - Team V
| 1.59 GB
File: The Bank Job 2008 Hybrid BRRip AC3 XviD - Team V.avi
Size: 1701397586 bytes (1.58 GiB), duration: 01:51:40, avg.bitrate: 2032 kb/s
Audio: ac3, 48000 Hz, 5:1, 384 kb/s
Video: mpeg4, yuv420p, 720x304, 23.98 fps(r)



Business is slow for Terry Leather, a London car dealer, married with children. He's an artful dodger, so Martine, a former model with a thing for him, brings him her scheme: a bank's alarm is off for a couple weeks, so let's tunnel into the vault. He assembles a team, not realizing her real goal is a safe-deposit box with compromising photos of a royal: she needs the photos to trade for avoiding a jail sentence - and MI-5, or is it MI-6, is pulling the strings two steps removed. A Trinidadian thug, a high-end bordello owner, and a pornographer also have things stored in the vault, so the break-in threatens many a powerful personage. Is there any way these amateurs can pull it off?
Title:The Bank Job
Year:2008
Rating:7.3
Genre:Crime / Drama / Thriller
Director:Roger Donaldson
Cast:Jason Statham / Saffron Burrows / Stephen Campbell Moore / Daniel Mays / James Faulkner / Alki David / Michael Jibson / Georgia Taylor / Richard Lintern / Peter Bowles / Alistair Petrie / Hattie Morahan / Julian Lewis Jones / Andrew Brooke / Rupert Frazer

http://ipicture.ru/uploads/20140503/3q33iPY6.jpg

NFo Notes
The Bank Job 2008 Hybrid BRRip AC3 XviD - Team V
http://ipicture.ru/uploads/20140503/UPR75MRs.jpg
http://www.imdb.com/title/tt0200465/
Source, The.Bank.Job.2008.Hybrid.720p.BluRay.DD5.1.x264 - DON,Thanks
Sample Included: Yes
Full english subs.yes
General
Complete name : The Bank Job 2008 Hybrid BRRip AC3 XviD - Team V.avi
Format : AVI
Format/Info : Audio Video Interleave
File size : 1.58 GiB
Duration : 1h 51mn
Overall bit rate : 2 031 Kbps
Video
ID : 0
Format : MPEG-4 Visual
Format profile : Advanced [email protected]
Format settings, BVOP : 2
Format settings, QPel : Yes
Format settings, GMC : No warppoints
Format settings, Matrix : Default (MPEG)
Codec ID : XVID
Codec ID/Hint : XviD
Duration : 1h 51mn
Bit rate : 1 640 Kbps
Width : 720 pixels
Height : 304 pixels
Display aspect ratio : 2.35:1
Frame rate : 23.976 fps
Color space : YUV
Chroma subsampling : 4:2:0
Bit depth : 8 bits
Scan type : Progressive
Compression mode : Lossy
Bits/(Pixel*Frame) : 0.312
Stream size : 1.28 GiB (81%)
Writing library : XviD 1.2.1 (UTC 2008-12-04)
Audio
ID : 1
Format : AC-3
Format/Info : Audio Coding 3
Mode extension : CM (complete main)
Format settings, Endianness : Big
Codec ID : 2000
Duration : 1h 51mn
Bit rate mode : Constant
Bit rate : 384 Kbps
Channel(s) : 6 channels
Channel positions : Front: L C R, Side: L R, LFE
Sampling rate : 48.0 KHz
Bit depth : 16 bits
Compression mode : Lossy
Stream size : 307 MiB (19%)
Alignment : Aligned on interleaves
Interleave, duration : 64 ms (1.53 video frames)
Interleave, preload duration : 192 ms
Title : The Bank Job 2008 Hybrid BRRip AC3 XviD - Team V - [0] English_new
Text
ID : 2
Duration : 1h 51mn
Bit rate : 146 bps
Stream size : 119 KiB (0%)
Title : The Bank Job 2008 Hybrid BRRip AC3 XviD - Team V_eng
Screens
http://lookpic.com/O/i2/1004/52QRRQ7.png
http://lookpic.com/O/i2/366/77kLk1zb.png
http://lookpic.com/O/i2/839/O3tCMHN9.png
http://lookpic.com/O/i2/497/JarmqLn.png
http://lookpic.com/O/i2/1638/ZXqVtmXd.png

http://farm8.staticflickr.com/7182/7139848641_f44113b322_z.jpg
SpecTruM to all ;)

I recommends Buy premimum account for High speed+parallel downloads!


http://i42.fastpic.ru/big/2012/0902/b3/75d853813eb9d54118cf47840d7ddfb3.gif
Buy Premium Before Download To Get Resumable Support & Max Speed



Links are Interchangeable - No Password
Direct Download

Tags: Hybrid
Glossy Wedding After Effects Download | Sanilyan Sex Vedieo | Resident Evil Remaster Password | Elisabeta Mature Fucking | Descargar Pizza Frenzy Con Crack | Ceh Version Full | Native Waves Multirack Mac Torrent | Downloadgoogle Animalsex | Momoka Nishina Uncensored | Jake And The Never Land Pirates Futanari E Hentai Galleries | Naughty Neighbor Magazine Rar Download | Frozen Just Da | Czech Hunter Myvidster | Gthai Movie Name Of Cast | Far Exam Becker | Standard Catalog Of World Coins Torrent Rk | Map Of Horse Shoes Farming Simulater Ps | Jo Social Networks Tabs Descargar | Ambiento Premium Landing Page

The Bank Job 2008 Hybrid BRRip AC3 XviD Team V Download via Hotfile Rapidshare Fileserve Megaupload & FileSonic, The Bank Job 2008 Hybrid BRRip AC3 XviD Team V free torrent downloads included crack, serial, keygen.


Add comments

Your Name:
Your E-Mail:

Security Code:
Include security image CAPCHA.
update code
Insert Code: