Song Of The South DVDRip AC3 x264 VAiN

Download Now

http://i60.fastpic.ru/big/2013/1128/62/24fe48c048ad6788634b54e55c392162.jpg
Song Of The South DVDRip AC3 x264 - VAiN
| 1.01 GB
File: Song.Of.The.South.DVDRip.x264.AC3 - VAiN.mkv
Size: 1066979329 bytes (1017.55 MiB), duration: 01:34:27, avg.bitrate: 1506 kb/s
Audio: ac3, 48000 Hz, stereo
Video: h264, yuv420p, 640x464, 23.98 fps(r)

iMDB iNFO


Uncle Remus draws upon his tales of Brer Rabbit to help little Johnny deal his confusion over his parents' separation as well as his new life on the plantation. The tales: The Briar Patch, The Tar Baby and Brer Rabbit's Laughing place.

Title:Song of the South
Year:1946
Rating:7.2
Genre:Animation / Family / Music
Director:Wilfred Jackson / Harve Foster
Cast:Ruth Warrick / Bobby Driscoll / James Baskett / Luana Patten / Lucile Watson / Hattie McDaniel / Erik Rolf / Glenn Leedy / Mary Field / Anita Brown / Georgie Nokes / Gene Holland / Nick Stewart / Johnny Lee
http://i59.fastpic.ru/big/2013/1128/3a/4bf5731d7cc70e54bba81249a300c23a.jpg

NFo
http://i59.fastpic.ru/big/2013/1128/fa/25046ef32500e4e24f22a04f37627afa.jpg

VAiN . P R E S E N T S . . .
Song.Of.The.South.DVDRip.x264.AC3 - VAiN
info
iMDB........: http://www.imdb.com/title/tt0038969/
Description........: The kindhearted storyteller Uncle Remus tells a young boy stories about trickster Br'er Rabbit, who outwits Br'er Fox and slow-witted Br'er Bear.
T E C H N i C A L . i N F O . . .
Format : Matroska
Format version : Version 2
File size : 1 018 MiB
Duration : 1h 34mn
Overall bit rate : 1 506 Kbps
Encoded date : UTC 2013-11-26 16:24:48
Writing application : mkvmerge v5.8.0 ('No Sleep / Pillow') built on Sep 2 2012 15:37:04
Writing library : libebml v1.2.3 + libmatroska v1.3.0
Video
ID : 1
Format : AVC
Format/Info : Advanced Video Codec
Format profile : [emailprotected]/* */
Format settings, CABAC : Yes
Format settings, ReFrames : 4 frames
Muxing mode : Header stripping
Codec ID : V_MPEG4/ISO/AVC
Duration : 1h 34mn
Bit rate : 1 249 Kbps
Width : 640 pixels
Height : 464 pixels
Display aspect ratio : 1.379
Frame rate mode : Constant
Frame rate : 23.976 fps
Color space : YUV
Chroma subsampling : 4:2:0
Bit depth : 8 bits
Scan type : Progressive
Bits/(Pixel*Frame) : 0.175
Stream size : 824 MiB (81%)
Writing library : x264 core 133 r2334 a3ac64b
Audio
ID : 2
Format : AC-3
Format/Info : Audio Coding 3
Mode extension : CM (complete main)
Format settings, Endianness : Big
Muxing mode : Header stripping
Codec ID : A_AC3
Duration : 1h 34mn
Bit rate mode : Constant
Bit rate : 256 Kbps
Channel(s) : 2 channels
Channel positions : Front: L R
Sampling rate : 48.0 KHz
Bit depth : 16 bits
Compression mode : Lossy
Stream size : 173 MiB (17%)
Default : Yes
Forced : No
notes
SOURCE......: Bluray
SAMPLE......: Yes
ADDED NOTE..:
screens
http://i60.fastpic.ru/big/2013/1128/62/d84415e1783c8c89b688967d42d86962.jpg
http://i58.fastpic.ru/big/2013/1128/10/c9dda3c533c2023523adaeee0a3d9810.jpg
http://i59.fastpic.ru/big/2013/1128/68/52a1c2425647c134dd772109d33a4b68.jpg
http://i59.fastpic.ru/big/2013/1128/15/23d0b211147fb92cd118c6e1905dd015.jpg
http://i57.fastpic.ru/big/2013/1128/c4/84e7dcde78442e43bb84924f56112ac4.jpg
Buy Premium Account and Download it at High Speed Before They Get Deleted
http://i58.fastpic.ru/big/2013/1128/cd/8225c85d809cc9fab4fc82cce76ef5cd.jpg

http://i58.fastpic.ru/big/2013/1128/08/e90f2b2ec406f93facda032ed01f2808.jpg

http://i60.fastpic.ru/big/2013/1128/f7/f5d5911cdfd3dd1c4b2596d8076114f7.jpg

If you like My contribution Then Please support me by getting an premium account


SecureUpload:
http://www.secureupload.eu/vrq1ohi05tao/kmiom.Song.Of.The.South.DVDRip.AC3.x264..VAiN.part1.rar
http://www.secureupload.eu/1z80a4kfihua/kmiom.Song.Of.The.South.DVDRip.AC3.x264..VAiN.part2.rar

RapidGator:
http://rapidgator.net/file/b9e6b53b40d19ad5d7ba92358ee6f810/kmiom.Song.Of.The.South.DVDRip.AC3.x264..VAiN.part1.rar.html
http://rapidgator.net/file/c6ead35557e8099d1a413edafcb76eb8/kmiom.Song.Of.The.South.DVDRip.AC3.x264..VAiN.part2.rar.html

RyuShare:
http://ryushare.com/lwjzm7obx679/kmiom.Song.Of.The.South.DVDRip.AC3.x264..VAiN.part1.rar
http://ryushare.com/3r3ogxwj15rj/kmiom.Song.Of.The.South.DVDRip.AC3.x264..VAiN.part2.rar

Uploaded:
http://uploaded.net/file/z5ifz5pm/kmiom.Song.Of.The.South.DVDRip.AC3.x264..VAiN.part1.rar
http://uploaded.net/file/l0nrdsyl/kmiom.Song.Of.The.South.DVDRip.AC3.x264..VAiN.part2.rar

TurboBit:
http://turbobit.net/ysefipqz2jfe/kmiom.Song.Of.The.South.DVDRip.AC3.x264..VAiN.part1.rar.html
http://turbobit.net/g4s8q4mg39py/kmiom.Song.Of.The.South.DVDRip.AC3.x264..VAiN.part2.rar.html
Direct Download

Tags: DVDRip
Fotos Familys Naturist | The Monkey King English Dubbed Avi | Ero Hikoylar | Nymphomaniac Uncut Torrent | Sunny Leon Badmasti | Discography Torrents Downloads | Windows Pro Ent Phone Activation Mak Keys Rsadak Jeutncrt Goihj | Analytical Head Hands Hampton | A Melting Pot Of Different Cultures | Channel V Sara Khan s Entry Tone Download | Keygen Flipbook Creator Professional | Mirror Recollection | Ufc On Fx Belfort Vs Rockhold Rapidshare | Prestashop Store Manager Torrent | Yiruma Stay In Memory Uptobox | Minimal Sample Magic Download Rapidshare | Tea Leaf Green In The Wake Torrent | Eminem Beautiful Dvdrip | Mekentosj Papers Crack Windows Download | Rachel Pastor Torrent

Song Of The South DVDRip AC3 x264 VAiN Download via Hotfile Rapidshare Fileserve Megaupload & FileSonic, Song Of The South DVDRip AC3 x264 VAiN free torrent downloads included crack, serial, keygen.


Add comments

Your Name:
Your E-Mail:

Security Code:
Include security image CAPCHA.
update code
Insert Code: