Amistad 1997 BDrip AC3 XviD - MiLLENiUM

Download Now


Amistad 1997 BDrip AC3 XviD - MiLLENiUM

Amistad 1997 BDrip AC3 XviD - MiLLENiUM | 2.35 GB

File: Amistad 1997 BDrip AC3 XviD - MiLLENiUM.avi
Size: 2431524864 bytes (2.26 GiB), duration: 02:34:43, avg.bitrate: 2095 kb/s
Audio: ac3, 48000 Hz, 5:1, 384 kb/s
Video: mpeg4, yuv420p, 720x384, 23.98 fps(r)
http://www.imdb.com/title/tt0118607/

Amistad is the name of a slave ship traveling from Cuba to the U.S. in 1839. It is carrying a cargo of Africans who have been sold into slavery in Cuba, taken on board, and chained in the cargo hold of the ship. As the ship is crossing from Cuba to the U.S., Cinque, who was a tribal leader in Africa, leads a mutiny and takes over the ship. They continue to sail, hoping to find help when they land. Instead, when they reach the United States, they are imprisoned as runaway slaves. They don't speak a word of English, and it seems like they are doomed to die for killing their captors when an abolitionist lawyer decides to take their case, arguing that they were free citizens of another country and not slaves at all. The case finally gets to the Supreme Court, where John Quincy Adams makes an impassioned and eloquent plea for their release.


Title:Amistad
Year:1997
Rating:7.2
Genre:Drama / History / Mystery
Director:Steven Spielberg
Cast:Morgan Freeman / Nigel Hawthorne / Anthony Hopkins / Djimon Hounsou / Matthew McConaughey / David Paymer / Pete Postlethwaite / Stellan SkarsgÄrd / Razaaq Adoti / Abu Bakaar Fofanah / Anna Paquin / Tomas Milian / Chiwetel Ejiofor / Derrick N. Ashong / Geno Silva


Amistad 1997 BDrip AC3 XviD - MiLLENiUM

NFo Notes
General
http://www.imdb.com/title/tt0118607/
Complete name : Amistad 1997 BDrip AC3 XviD - MiLLENiUM.avi
Source : Bluray [Thanks]
Format : AVI
Format/Info : Audio Video Interleave
Format profile : OpenDML
File size : 2.26 GiB
Duration : 2h 34mn
Overall bit rate : 2 095 Kbps
Writing application : VirtualDubMod 1.5.10.2 (build 2540/release)
Writing library : VirtualDubMod build 2540/release
Video
ID : 0
Format : MPEG-4 Visual
Format profile : Advanced [email protected]
Format settings, BVOP : 2
Format settings, QPel : Yes
Format settings, GMC : No warppoints
Format settings, Matrix : Default (MPEG)
Codec ID : XVID
Codec ID/Hint : XviD
Duration : 2h 34mn
Bit rate : 1 700 Kbps
Width : 720 pixels
Height : 384 pixels
Display aspect ratio : 1.875
Frame rate : 23.976 fps
Color space : YUV
Chroma subsampling : 4:2:0
Bit depth : 8 bits
Scan type : Progressive
Compression mode : Lossy
Bits/(Pixel*Frame) : 0.256
Stream size : 1.84 GiB (81%)
Writing library : XviD 1.2.1 (UTC 2008-12-04)
Audio
ID : 1
Format : AC-3
Format/Info : Audio Coding 3
Mode extension : CM (complete main)
Codec ID : 2000
Duration : 2h 34mn
Bit rate mode : Constant
Bit rate : 384 Kbps
Channel(s) : 6 channels
Channel positions : Front: L C R, Side: L R, LFE
Sampling rate : 48.0 KHz
Bit depth : 16 bits
Compression mode : Lossy
Stream size : 425 MiB (18%)
Alignment : Split accross interleaves
Interleave, duration : 42 ms (1.00 video frame)
Interleave, preload duration : 500 ms
Screens :
Amistad 1997 BDrip AC3 XviD - MiLLENiUM
Amistad 1997 BDrip AC3 XviD - MiLLENiUM
Amistad 1997 BDrip AC3 XviD - MiLLENiUM
Amistad 1997 BDrip AC3 XviD - MiLLENiUM
Amistad 1997 BDrip AC3 XviD - MiLLENiUM
Amistad 1997 BDrip AC3 XviD - MiLLENiUM


Free Link Download uploadable.ch
http://www.uploadable.ch/file/5EXt5FaPBWjH/ruat9.Amistad.1997.BDrip.AC3.XviD..MiLLENiUM.part1.rar
http://www.uploadable.ch/file/8SGvmhaeRvc6/ruat9.Amistad.1997.BDrip.AC3.XviD..MiLLENiUM.part2.rar


Buy Premium Rapidgator Download Max Speed
http://rapidgator.net/file/298d57cd27524526d7e67d76ae632b53/ruat9.Amistad.1997.BDrip.AC3.XviD..MiLLENiUM.part1.rar.html
http://rapidgator.net/file/98090931a0487cc84551de753f0cd515/ruat9.Amistad.1997.BDrip.AC3.XviD..MiLLENiUM.part2.rar.html

Download Link uploaded.net
http://uploaded.net/file/dfz4glo4/ruat9.Amistad.1997.BDrip.AC3.XviD..MiLLENiUM.part1.rar
http://uploaded.net/file/sgo7y9sf/ruat9.Amistad.1997.BDrip.AC3.XviD..MiLLENiUM.part2.rar
Direct Download

Tags: Amistad, MiLLENiUM
Vst Plugins Dx Electric Piano Torrent | Nicole Heat More Men | Nightstud Game Reg Key | Higher Education Reforms Change Dynamics Rotterdam Netherlands Sense | Fix My Registry Activation Code | Create Steamos Iso | Download Fuck Horse gp Download Fuck Horse gp | Brzzers mb Movies | Iron Man Dvdrip p Dual | Polly Stream Game Of Throne Season Episode | Downloading French Language Pack Windows For X Based Systems Kb Fr Fr Lp Rk | Nac Ahr Feindbild Mediafire | Designshowcase Portfolio Psd Template | Autoroute Unlock Password | Codecanyon Wordpress Timel Ine Slider Torrent | Free Download Lightworks Full Crack | Preteen Big Clit Pictures | Seks Kelin Qaynota | How To Login At Rule Co M | Kit Istori Downlod

Amistad 1997 BDrip AC3 XviD - MiLLENiUM Download via Hotfile Rapidshare Fileserve Megaupload & FileSonic, Amistad 1997 BDrip AC3 XviD - MiLLENiUM free torrent downloads included crack, serial, keygen.


Add comments

Your Name:
Your E-Mail:

Security Code:
Include security image CAPCHA.
update code
Insert Code: