Meeks Cutoff 2010 BDRIP AC3 x264 DiRTYBURGER

Download Now

Meeks Cutoff 2010 BDRIP AC3 x264 DiRTYBURGER

Meeks Cutoff 2010 BDRIP AC3 x264 DiRTYBURGER | 2.91 GB

File: Meeks.Cutoff.2010.BDRIP.X264.AC3.DiRTYBURGER.mkv
Size: 3081175550 bytes (2.87 GiB), duration: 01:42:41, avg.bitrate: 4001 kb/s
Audio: ac3, 48000 Hz, 5:1 (eng)
Video: h264, yuv420p, 1280x960, 23.98 fps(r)
http://www.imdb.com/title/tt1518812/

The year is 1845, the earliest days of the Oregon Trail, and a wagon team of three families has hired the mountain man Stephen Meek to guide them over the Cascade Mountains. Claiming to know a short cut, Meek leads the group on an unmarked path across the high plain desert, only to become lost in the dry rock and sage. Over the coming days, the emigrants must face the scourges of hunger, thirst and their own lack of faith in each other's instincts for survival. When a Native American wanderer crosses their path, the emigrants are torn between their trust in a guide who has proven himself unreliable and a man who has always been seen as the natural enemy.

Title:Meek's Cutoff
Year:2010
Rating:6.5
Genre:Drama / Western
Director:Kelly Reichardt
Cast:Michelle Williams / Bruce Greenwood / Will Patton / Zoe Kazan / Paul Dano / Shirley Henderson / Neal Huff / Tommy Nelson / Rod Rondeaux

Meeks Cutoff 2010 BDRIP AC3 x264 DiRTYBURGER


DiRTYBURGER Proudly Presents
Meeks Cutoff 2010 BDRIP AC3 x264 DiRTYBURGER
******************************************************************************************************
Meeks.Cutoff.2010.BDRIP.X264.AC3.DiRTYBURGER
******************************************************************************************************
Video Codec.......: AVC
Video Bitrate.....: 3359 kbs
Audio Codec.......: AC3
Audio Bitrate.....: 640 kbs, 6 channels
Resolution........: 1280X960, 23.976 fps
Runtime...........: 1h 42mn
Release Date......: 24 May 2014
Theatre Date......: 5 September 2010
Language..........: English
Subtitles.........: n/a
IMDB Rating.......: 6.5 / 10
http://www.imdb.com/title/tt1518812/
_______________________________________________________________________________
General
Unique ID : 231880478225666655381153663942897731793 (0xAE728E3F4C83F0988711001FB86888D1)
Complete name : C:UsersrootDownloadsMeeks.Cutoff.2010.BDRIP.X264.AC3.DiRTYBURGERMeeks.Cutoff.2010.BDRIP.X264.AC3.DiRTYBURGER.mkv
Format : Matroska
Format version : Version 2
File size : 2.87 GiB
Duration : 1h 42mn
Overall bit rate : 4 001 Kbps
Encoded date : UTC 2014-05-24 02:29:49
Writing application : mkvmerge v6.9.1 ('Blue Panther') 32bit built on Apr 18 2014 18:15:44
Writing library : libebml v1.3.0 + libmatroska v1.4.1
________________________________________________________________________________
Video
ID : 1
Format : AVC
Format/Info : Advanced Video Codec
Format profile : /*
Format settings, CABAC : Yes
Format settings, ReFrames : 5 frames
Codec ID : V_MPEG4/ISO/AVC
Duration : 1h 42mn
Bit rate : 3 359 Kbps
Width : 1 280 pixels
Height : 960 pixels
Display aspect ratio : 4:3
Frame rate mode : Constant
Frame rate : 23.976 fps
Color space : YUV
Chroma subsampling : 4:2:0
Bit depth : 8 bits
Scan type : Progressive
Bits/(Pixel*Frame) : 0.114
Stream size : 2.35 GiB (82%)
Writing library : x264 core 142 r2431 ac76440
Encoding settings : cabac=1 / ref=5 / deblock=1:-1:-1 / analyse=0x3:0x133 / me=umh / subme=6 / psy=1 / psy_rd=1.00:0.00 / mixed_ref=1 / me_range=16 / chroma_me=1 / trellis=2 / 8x8dct=1 / cqm=0 / deadzone=21,11 / fast_pskip=1 / chroma_qp_offset=-2 / threads=12 / lookahead_threads=2 / sliced_threads=0 / nr=0 / decimate=1 / interlaced=0 / bluray_compat=0 / constrained_intra=0 / bframes=3 / b_pyramid=2 / b_adapt=2 / b_bias=0 / direct=3 / weightb=1 / open_gop=0 / weightp=2 / keyint=240 / keyint_min=23 / scenecut=40 / intra_refresh=0 / rc_lookahead=40 / rc=2pass / mbtree=1 / bitrate=3359 / ratetol=1.0 / qcomp=0.60 / qpmin=10 / qpmax=51 / qpstep=4 / cplxblur=20.0 / qblur=0.5 / ip_ratio=1.40 / aq=1:1.00
Default : Yes
Forced : No
_________________________________________________________________________________
Audio
ID : 2
Format : AC-3
Format/Info : Audio Coding 3
Mode extension : CM (complete main)
Format settings, Endianness : Big
Codec ID : A_AC3
Duration : 1h 42mn
Bit rate mode : Constant
Bit rate : 640 Kbps
Channel(s) : 6 channels
Channel positions : Front: L C R, Side: L R, LFE
Sampling rate : 48.0 KHz
Bit depth : 16 bits
Compression mode : Lossy
Stream size : 470 MiB (16%)
Language : English
Default : Yes
Forced : No
_________________________________________________________________________________
SOURCES:
VIDEO: Thanks
AUDIO: Thanks
_________________________________________________________________________________
Description:
Settlers traveling through the Oregon desert in 1845 find themselves stranded in harsh conditions.
_________________________________________________________________________________
Cast
Director: Kelly Reichardt
Writer: Jonathan Raymond (screenplay)
Stars: Michelle Williams, Bruce Greenwood, Paul Dano
_________________________________________________________________________________
Screens:
Meeks Cutoff 2010 BDRIP AC3 x264 DiRTYBURGER
Meeks Cutoff 2010 BDRIP AC3 x264 DiRTYBURGER
Meeks Cutoff 2010 BDRIP AC3 x264 DiRTYBURGER
Meeks Cutoff 2010 BDRIP AC3 x264 DiRTYBURGER
Meeks Cutoff 2010 BDRIP AC3 x264 DiRTYBURGER
_________________________________________________________________________________
Youtube Trailer:
[video=https://www.youtube.com/watch?v=5rhNrz2hX_o]
_________________________________________________________________________________
Sample Included
_________________________________________________________________________________
Notes:
_________________________________________________________________________________
Greets:
You know who you are and respect is given where it is due :bow:
__________________________________________________________________________________
DiRTYBURGER are currently Looking for unreleased DVD's,BluRay's, Screeners,New Music Releases,R5's,Audio,Cams,
Silvers,syncers,cammers and Any Other Good Sources You May Have To Offer
Contact us @ /*
Meeks Cutoff 2010 BDRIP AC3 x264 DiRTYBURGER

Free Link Download uploadable.ch
http://www.uploadable.ch/file/vVnqkGKC4dBV...URGER.part1.rar
http://www.uploadable.ch/file/3Sv93DPcdWeg...URGER.part2.rar
http://www.uploadable.ch/file/K9zTaVPwEX5u...URGER.part3.rar

Buy Premium Rapidgator Download Max Speed
http://rapidgator.net/file/12f9f96f42cf1bd....part1.rar.html
http://rapidgator.net/file/bb560aa4fcb3c92....part2.rar.html
http://rapidgator.net/file/ab3e01da549bd9c....part3.rar.html
Direct Download

Tags: DiRTYBURGER, Cutoff
When Will The Next Macbook Air Come Out | Dishonored Playstation Game French Change Language How | Crack Plugin Digital Film Tools Rays Ae | Endnote X Product Key Free | Semelike Movie Rounds Reloaded H Drip Unrated Xv Id Ac Hq Hive Cm | Izotope Elements Mac Torrent | How To Use Catia In Windows Rk Rst | Desprate Amatuers Indie Part | Driverpack Solution | John Fogerty Live At The El Rey Theatre Hdtv i Torrent | Jailbait Sexy Stickam | Reallife Cam View | Kevin Wallace Ccna Torrent | Town Hall Bases | Public Notes Normal Version Login Rsadalvccz Rk Rsnrljww R | Foxy Anya Long Hair shared | Youtube Seks Bidio Skarhat | Avatar Sex Videos | st Studio Torrent Mm | Peachtree Tutorial Torrent

Meeks Cutoff 2010 BDRIP AC3 x264 DiRTYBURGER Download via Hotfile Rapidshare Fileserve Megaupload & FileSonic, Meeks Cutoff 2010 BDRIP AC3 x264 DiRTYBURGER free torrent downloads included crack, serial, keygen.


Add comments

Your Name:
Your E-Mail:

Security Code:
Include security image CAPCHA.
update code
Insert Code: