The Occupants 2014 BRRip 720p AC3 x264 CrEwSaDe

Download Now

The Occupants 2014 BRRip 720p AC3 x264 CrEwSaDe

The Occupants 2014 BRRip 720p AC3 x264 CrEwSaDe | 2.04 GB

File: The.Occupants.2014.720p.BRRIP.x264.AC3.CrEwSaDe.mkv
Size: 2151254640 bytes (2.00 GiB), duration: 01:18:59, avg.bitrate: 3632 kb/s
Audio: ac3, 48000 Hz, 5:1 (eng)
Video: h264, yuv420p, 1280x720, 23.98 fps(r)
http://www.imdb.com/title/tt1934195/

Lucy has a new husband, a new home and a new baby, but old ghosts won't let her be. She tries to help the tortured souls break free of their torment and move on, but soon finds these ghosts don't want her help.

Title:The Occupants
Year:2014
Rating:4.4
Genre:Thriller
Director:Todd Alcott
Cast:Kristen Ariza / Ashanti Brown / Macey Cruthird / Mary Pat Farrell / Gail Golden / Toby Huss / Katherine Kamhi / Callum Kelleher / Elizabeth Krasick / Cristin Milioti / Natalie Neurauter / Michael Rady / Gena Shaw / Cordelia Sonnenschein / James Urbaniak

The Occupants 2014 BRRip 720p AC3 x264 CrEwSaDe


Release Brought to you by CrEwSaDe
Poster]
The Occupants 2014 BRRip 720p AC3 x264 CrEwSaDe
******************************************************************************************************
**The.Occupants.2014.720p.BRRIP.x264.AC3.CrEwSaDe **
******************************************************************************************************
Video Codec.......:AVC
Video Bitrate.....:3 120 Kbps
Audio Codec.......:AC-3
Resolution........:1280x720
Runtime...........:1h 18mn
Release Date......:23/05/14
Theatre Date......:13 January 2014 (USA)
Language..........:English
Subtitles.........:N/A
IMDB Rating.......:4.2
IMDb URL..........:http://www.imdb.com/title/tt1934195
_______________________________________________________________________________
General
Unique ID : 247504012191168561741123730097138672693 (0xBA3389F1A5B6D71C90813CFC490DA435)
Complete name : C:UsersrootDownloadsThe.Occupants.2014.720p.BRRIP.x264.AC3.CrEwSaDeThe.Occupants.2014.720p.BRRIP.x264.AC3.CrEwSaDe.mkv
Format : Matroska
Format version : Version 2
File size : 2.00 GiB
Duration : 1h 18mn
Overall bit rate : 3 631 Kbps
Encoded date : UTC 2014-05-23 22:29:15
Writing application : mkvmerge v6.5.0 ('Isn't she lovely') built on Oct 20 2013 12:50:05
Writing library : libebml v1.3.0 + libmatroska v1.4.1
________________________________________________________________________________
Video
ID : 1
Format : AVC
Format/Info : Advanced Video Codec
Format profile : /*
Format settings, CABAC : Yes
Format settings, ReFrames : 4 frames
Codec ID : V_MPEG4/ISO/AVC
Duration : 1h 18mn
Bit rate : 3 120 Kbps
Width : 1 280 pixels
Height : 720 pixels
Display aspect ratio : 16:9
Frame rate mode : Constant
Frame rate : 23.976 fps
Color space : YUV
Chroma subsampling : 4:2:0
Bit depth : 8 bits
Scan type : Progressive
Bits/(Pixel*Frame) : 0.141
Stream size : 1.68 GiB (84%)
Writing library : x264 core 138 r2358 9e941d1
Encoding settings : cabac=1 / ref=3 / deblock=1:-2:-2 / analyse=0x3:0x113 / me=hex / subme=7 / psy=1 / psy_rd=1.00:0.25 / mixed_ref=1 / me_range=16 / chroma_me=1 / trellis=1 / 8x8dct=1 / cqm=0 / deadzone=6,6 / fast_pskip=1 / chroma_qp_offset=-4 / threads=6 / lookahead_threads=1 / sliced_threads=0 / nr=0 / decimate=0 / interlaced=0 / bluray_compat=0 / constrained_intra=0 / bframes=3 / b_pyramid=2 / b_adapt=1 / b_bias=0 / direct=1 / weightb=1 / open_gop=0 / weightp=2 / keyint=240 / keyint_min=23 / scenecut=40 / intra_refresh=0 / rc_lookahead=40 / rc=2pass / mbtree=1 / bitrate=3120 / ratetol=1.0 / qcomp=0.80 / qpmin=0 / qpmax=69 / qpstep=4 / cplxblur=20.0 / qblur=0.5 / vbv_maxrate=62500 / vbv_bufsize=78125 / nal_hrd=none / ip_ratio=1.10 / aq=1:0.50
Default : Yes
Forced : No
_________________________________________________________________________________
Audio
ID : 2
Format : AC-3
Format/Info : Audio Coding 3
Mode extension : CM (complete main)
Format settings, Endianness : Big
Codec ID : A_AC3
Duration : 1h 18mn
Bit rate mode : Constant
Bit rate : 512 Kbps
Channel(s) : 6 channels
Channel positions : Front: L C R, Side: L R, LFE
Sampling rate : 48.0 KHz
Bit depth : 16 bits
Compression mode : Lossy
Stream size : 289 MiB (14%)
Language : English
Default : Yes
Forced : No
_________________________________________________________________________________
SOURCES:The.Occupants.2014.1080p.BluRayThanks
_________________________________________________________________________________
Description:Lucy has a new husband, a new home and a new baby, but old ghosts won't let her be. She tries to help the tortured souls break free of their torment and move on, but soon finds these ghosts don't want her help.
_________________________________________________________________________________
Screens:
The Occupants 2014 BRRip 720p AC3 x264 CrEwSaDe
[
The Occupants 2014 BRRip 720p AC3 x264 CrEwSaDe
The Occupants 2014 BRRip 720p AC3 x264 CrEwSaDe
The Occupants 2014 BRRip 720p AC3 x264 CrEwSaDe
The Occupants 2014 BRRip 720p AC3 x264 CrEwSaDe
The Occupants 2014 BRRip 720p AC3 x264 CrEwSaDe
_________________________________________________________________________________
Youtube Trailer:
[video=https://www.youtube.com/watch?v=FxYsrX-1YPA]
_________________________________________________________________________________
Sample Included
_________________________________________________________________________________
Greets:
All our home site staff for getting us such great sources :-) also our friends
LEGiON,JTR,RealGoneKid,BHRG,Dirty Mary,SAFC,THEROCK,BBnRG,THC,PRESTiGE,AbSurdiTy,aTLas,Feel-Free CrEwSaDe members Past and present, all other p2pgroups past and present,and all other p2pgroups past That made all this possible and the present ones that continue to work so hard at what we do
__________________________________________________________________________________
CrEwSaDe are currently Looking for unreleased DVD's,Screeners,New Music Releases,R5's,Audio,Cams,
Silvers,syncers,cammers and Any Other Good Sources You May Have To Offer
Contact us @ /*
The Occupants 2014 BRRip 720p AC3 x264 CrEwSaDe

Free Link Download uploadable.ch
http://www.uploadable.ch/file/5bcs8beWVZ7P...wSaDe.part1.rar
http://www.uploadable.ch/file/KV2brPZ2sD9C...wSaDe.part2.rar

Buy Premium Rapidgator Download Max Speed
http://rapidgator.net/file/ac0b992b61a5bd6....part1.rar.html
http://rapidgator.net/file/917f0f6ba0d243d....part2.rar.html

Download Link uploaded.net
http://uploaded.net/file/cf8s52ah/1o2c3.Th...wSaDe.part1.rar
http://uploaded.net/file/jsfvgtwg/1o2c3.Th...wSaDe.part2.rar
Direct Download

Tags: CrEwSaDe, Occupants
Public Notes Normal Version Login Rsadasmss Rk Rsbmvodvbopwbor | Templates In Creating New Revit Families | Ucranian Angels Forum | A Billion Wicked Thoughts Epub | Introduction To Mathematical Thinking Epub | Nikon D De Rob Sylvan Photoclub | Microsoft Toolkit Windows Update | Natalia Gorodetskaya Videos | Confirmation Id Generator | Naturist Yoga School | Woodman Casting X Logan | Meta Central And Eastern Europe | Czech Hunter Download | Autograss V Max Crack | Elo Itunes Plus | Windows Evaluation Copy Expiration | Anak Abg Nyepong | Xp Unattended Tools Aio | How To Crack Inventor Sp Win | Printopia Torrent

The Occupants 2014 BRRip 720p AC3 x264 CrEwSaDe Download via Hotfile Rapidshare Fileserve Megaupload & FileSonic, The Occupants 2014 BRRip 720p AC3 x264 CrEwSaDe free torrent downloads included crack, serial, keygen.


Add comments

Your Name:
Your E-Mail:

Security Code:
Include security image CAPCHA.
update code
Insert Code: