Blazing Saddles 1974 DVDRip AC3 x264 DrunkinRG

Download Now

Blazing Saddles (1974) DVDRip AC3 x264 DrunkinRG

Blazing Saddles (1974) DVDRip AC3 x264 DrunkinRG | 1.06 GB

File: Blazing Saddles (1974).DVDRip.X264.AC3.DrunkinRG.mkv
Size: 1115547697 bytes (1.04 GiB), duration: 01:31:29, avg.bitrate: 1626 kb/s
Audio: ac3, 48000 Hz, 5:1
Video: h264, yuv420p, 720x288, 25.00 fps(r) (eng)
http://www.imdb.com/title/tt0071230/

The Ultimate Western Spoof. A town where everyone seems to be named Johnson is in the way of the railroad. In order to grab their land, Hedley Lemar, a politically connected nasty person, sends in his henchmen to make the town unlivable. After the sheriff is killed, the town demands a new sheriff from the Governor. Hedley convinces him to send the town the first Black sheriff in the west. Bart is a sophisticated urbanite who will have some difficulty winning over the townspeople.

Title:Blazing Saddles
Year:1974
Rating:7.8
Genre:Comedy / Western
Director:Mel Brooks
Cast:Cleavon Little / Gene Wilder / Slim Pickens / Harvey Korman / Madeline Kahn / Mel Brooks / Burton Gilliam / Alex Karras / David Huddleston / Liam Dunn / John Hillerman / George Furth / Jack Starrett / Carol Arthur / Richard Collier

Blazing Saddles (1974) DVDRip AC3 x264 DrunkinRG


NFo Notes
Blazing Saddles (1974) DVDRip AC3 x264 DrunkinRG

IMDB:http://www.imdb.com/title/tt0071230/
To ruin a western town, a corrupt political boss appoints a black sheriff, who promptly becomes his most formidable adversary.
INFO:
General
Unique ID : 194326768831634770843562545757369981949 (0x9231F96C4EA2417EABAEE0F46B7CDBFD)
Complete name : C:UsersadminDocumentsBlazing Saddles (1974).DVDRip.X264.AC3.DrunkinRGBlazing Saddles (1974).DVDRip.X264.AC3.DrunkinRG.mkv
Format : Matroska
Format version : Version 2
File size : 1.04 GiB
Duration : 1h 31mn
Overall bit rate : 1 626 Kbps
Encoded date : UTC 2014-05-18 15:56:53
Writing application : mkvmerge v4.7.0 ('Just Like You Imagined') built on Apr 21 2011 01:13:14
Writing library : libebml v1.2.0 + libmatroska v1.1.0
Video
ID : 1
Format : AVC
Format/Info : Advanced Video Codec
Format profile : /*
Format settings, CABAC : Yes
Format settings, ReFrames : 4 frames
Muxing mode : Header stripping
Codec ID : V_MPEG4/ISO/AVC
Duration : 1h 31mn
Bit rate : 1 250 Kbps
Width : 720 pixels
Height : 288 pixels
Display aspect ratio : 2.500
Frame rate mode : Constant
Frame rate : 25.000 fps
Color space : YUV
Chroma subsampling : 4:2:0
Bit depth : 8 bits
Scan type : Progressive
Bits/(Pixel*Frame) : 0.241
Stream size : 791 MiB (74%)
Writing library : x264 core 138 r2358 9e941d1
Encoding settings : cabac=1 / ref=3 / deblock=1:0:0 / analyse=0x3:0x111 / me=hex / subme=7 / psy=1 / psy_rd=1.00:0.00 / mixed_ref=1 / me_range=16 / chroma_me=1 / trellis=1 / 8x8dct=1 / cqm=0 / deadzone=21,11 / fast_pskip=1 / chroma_qp_offset=-2 / threads=6 / lookahead_threads=1 / sliced_threads=0 / nr=0 / decimate=1 / interlaced=0 / bluray_compat=0 / constrained_intra=0 / bframes=3 / b_pyramid=2 / b_adapt=1 / b_bias=0 / direct=1 / weightb=1 / open_gop=0 / weightp=2 / keyint=250 / keyint_min=25 / scenecut=40 / intra_refresh=0 / rc_lookahead=40 / rc=2pass / mbtree=1 / bitrate=1250 / ratetol=1.0 / qcomp=0.60 / qpmin=0 / qpmax=69 / qpstep=4 / cplxblur=20.0 / qblur=0.5 / ip_ratio=1.40 / aq=1:1.00
Language : English
Default : Yes
Forced : No
Audio
ID : 2
Format : AC-3
Format/Info : Audio Coding 3
Mode extension : CM (complete main)
Format settings, Endianness : Big
Muxing mode : Header stripping
Codec ID : A_AC3
Duration : 1h 31mn
Bit rate mode : Constant
Bit rate : 384 Kbps
Channel(s) : 6 channels
Channel positions : Front: L C R, Side: L R, LFE
Sampling rate : 48.0 KHz
Bit depth : 16 bits
Compression mode : Lossy
Stream size : 251 MiB (24%)
Default : Yes
Forced : No
SCREENS:
Blazing Saddles (1974) DVDRip AC3 x264 DrunkinRG
Blazing Saddles (1974) DVDRip AC3 x264 DrunkinRG
Blazing Saddles (1974) DVDRip AC3 x264 DrunkinRG


Free Link Download uploadable.ch
http://www.uploadable.ch/file/9KRHXvRxV49u...4.DrunkinRG.rar

Buy Premium Rapidgator Download Max Speed
http://rapidgator.net/file/89cc1e345b55fff...nkinRG.rar.html

Buy Premium Link letitbit.net Download Max Speed
http://u32969001.letitbit.net/download/445...nkinRG.rar.html
Direct Download

Tags: DrunkinRG, DVDRip, Saddles, Blazing
Motif Xf Pattern Psy Libery Bank | Keygan Ez Drummer Rock Solid | Serial Extensis Suitcase Fusion Para Mac | e British Boobs Savannah Gold Torrent | Prizmo Scanning | Search Bhutanese Music New | Girl Fuck Story In Kannada | Lady Gaga Unreleased Kbps Cd | Preteen Model Vladmodel | Smriti Irani Xvideo | Public Notes Normal Version Login Rsadahmhpgf Rk Rs | Microsoft Windows Pro Pack Upgrade Torrent | Hyperdrawing Beyond The Lines Of Contemporary Art | Dvd Architect Pro Torrent Rsada Dhiqgkmdlgewfqq | Download Tekuho Siterip | Masha Babko Fuck Daddy | Indian Train Simulator Download | Public Notes Normal Version Login Rsada Rk Rsxundcaev | Model Top Majela Dewasa

Blazing Saddles 1974 DVDRip AC3 x264 DrunkinRG Download via Hotfile Rapidshare Fileserve Megaupload & FileSonic, Blazing Saddles 1974 DVDRip AC3 x264 DrunkinRG free torrent downloads included crack, serial, keygen.


Add comments

Your Name:
Your E-Mail:

Security Code:
Include security image CAPCHA.
update code
Insert Code: