13 Sins 2014 LIMITED BRRIP AC3 x264 CrEwSaDe

Download Now

13 Sins 2014 LIMITED BRRIP AC3 x264 CrEwSaDe

13 Sins 2014 LIMITED BRRIP AC3 x264 CrEwSaDe | 1.07 GB

File: 13.Sins.2014.LIMITED.BRRIP.x264.AC3.CrEwSaDe.mkv
Size: 1132808388 bytes (1.06 GiB), duration: 01:32:32, avg.bitrate: 1632 kb/s
Audio: ac3, 48000 Hz, 5:1 (eng)
Video: h264, yuv420p, 720x304, 23.98 fps(r)
http://www.imdb.com/title/tt2059171/

Elliot Brindle is a bright, meek salesman, drowning in debt - and desperate as he's about to marry the love of his life. Upon receiving a phone call informing him that he's on a hidden camera game show where he must execute 13 tasks to receive a sum total cash prize of .2M, Elliot dismissively follows through with his first two instructions: swat the fly that is currently bothering him, then eat the fly. With thousands of dollars suddenly appearing in his bank account, Elliot remains skeptical, though comforted by the knowledge that he can stop playing at anytime if only to lose every penny that he's won. Trapped into the horrors manipulated by unseen spectators, Elliot's need to complete the game escalates as the tasks grow more extreme, to a devastating point of no return.


Title:13 Sins
Year:2014
Rating:6.2
Genre:Horror / Thriller
Director:Daniel Stamm
Cast:Mark Webber / Devon Graye / Tom Bower / Rutina Wesley / Ron Perlman / Pruitt Taylor Vince / Clyde Jones / Deneen Tyler / Greg Pearson / Ritchie Montgomery / Jesse Yarborough / Brylee Kate Woodard / Sabrina Gennarino / Robert Larriviere / Jenn Foreman

13 Sins 2014 LIMITED BRRIP AC3 x264 CrEwSaDe


Release Brought to you by CrEwSaDe
Poster]
13 Sins 2014 LIMITED BRRIP AC3 x264 CrEwSaDe
******************************************************************************************************
**13.Sins.2014.LIMITED.BRRIP.x264.AC3.CrEwSaDe **
******************************************************************************************************
Video Codec.......:AVC
Video Bitrate.....:1 247 Kbps
Audio Codec.......:AC-3
Resolution........:720x304
Runtime...........:1h 32mn
Release Date......:29/05/14
Theatre Date......:11 April 2014 (Poland)
Language..........:English
Subtitles.........:N/A
IMDB Rating.......:6.2
IMDb URL..........:http://www.imdb.com/title/tt2059171
_______________________________________________________________________________
General
Unique ID : 212997899699303778679473981608554043022 (0xA03DE73F78B272E784DC15FA536A968E)
Complete name : C:\Users\root\Downloads.Sins.2014.LIMITED.BRRIP.x264.AC3.CrEwSaDe.Sins.2014.LIMITED.BRRIP.x264.AC3.CrEwSaDe.mkv
Format : Matroska
Format version : Version 2
File size : 1.06 GiB
Duration : 1h 32mn
Overall bit rate : 1 632 Kbps
Encoded date : UTC 2014-05-29 16:18:26
Writing application : mkvmerge v6.5.0 ('Isn't she lovely') built on Oct 20 2013 12:50:05
Writing library : libebml v1.3.0 + libmatroska v1.4.1
________________________________________________________________________________
Video
ID : 1
Format : AVC
Format/Info : Advanced Video Codec
Format profile : /*
Format settings, CABAC : Yes
Format settings, ReFrames : 4 frames
Codec ID : V_MPEG4/ISO/AVC
Duration : 1h 32mn
Bit rate : 1 247 Kbps
Width : 720 pixels
Height : 304 pixels
Display aspect ratio : 2.40:1
Frame rate mode : Constant
Frame rate : 23.976 fps
Color space : YUV
Chroma subsampling : 4:2:0
Bit depth : 8 bits
Scan type : Progressive
Bits/(Pixel*Frame) : 0.238
Stream size : 805 MiB (74%)
Writing library : x264 core 138 r2358 9e941d1
Encoding settings : cabac=1 / ref=3 / deblock=1:-1:-1 / analyse=0x3:0x113 / me=hex / subme=7 / psy=1 / psy_rd=1.00:0.15 / mixed_ref=1 / me_range=16 / chroma_me=1 / trellis=1 / 8x8dct=1 / cqm=0 / deadzone=21,11 / fast_pskip=1 / chroma_qp_offset=-3 / threads=3 / lookahead_threads=1 / sliced_threads=0 / nr=0 / decimate=1 / interlaced=0 / bluray_compat=0 / constrained_intra=0 / bframes=3 / b_pyramid=2 / b_adapt=1 / b_bias=0 / direct=1 / weightb=1 / open_gop=0 / weightp=2 / keyint=240 / keyint_min=23 / scenecut=40 / intra_refresh=0 / rc_lookahead=40 / rc=2pass / mbtree=1 / bitrate=1247 / ratetol=1.0 / qcomp=0.60 / qpmin=0 / qpmax=69 / qpstep=4 / cplxblur=20.0 / qblur=0.5 / vbv_maxrate=17500 / vbv_bufsize=17500 / nal_hrd=none / ip_ratio=1.40 / aq=1:1.00
Default : Yes
Forced : No
_________________________________________________________________________________
Audio
ID : 2
Format : AC-3
Format/Info : Audio Coding 3
Mode extension : CM (complete main)
Format settings, Endianness : Big
Codec ID : A_AC3
Duration : 1h 32mn
Bit rate mode : Constant
Bit rate : 384 Kbps
Channel(s) : 6 channels
Channel positions : Front: L C R, Side: L R, LFE
Sampling rate : 48.0 KHz
Bit depth : 16 bits
Compression mode : Lossy
Stream size : 254 MiB (24%)
Language : English
Default : Yes
Forced : No
_________________________________________________________________________________
SOURCES:13.Sins.2014.LIMITED.720p.BluRay.x264 - GECKOSThanks
_________________________________________________________________________________
Description:A cryptic phone call sets off a dangerous game of risks for Elliot, a down-on-his luck salesman. The game promises increasing rewards for completing 13 tasks, each more sinister than the last.
_________________________________________________________________________________
Screens:
13 Sins 2014 LIMITED BRRIP AC3 x264 CrEwSaDe
13 Sins 2014 LIMITED BRRIP AC3 x264 CrEwSaDe
13 Sins 2014 LIMITED BRRIP AC3 x264 CrEwSaDe
13 Sins 2014 LIMITED BRRIP AC3 x264 CrEwSaDe
13 Sins 2014 LIMITED BRRIP AC3 x264 CrEwSaDe
13 Sins 2014 LIMITED BRRIP AC3 x264 CrEwSaDe
_________________________________________________________________________________
Youtube Trailer:
[video=https://www.youtube.com/watch?v=JBTtLh5wU3I]
_________________________________________________________________________________
Sample Included
_________________________________________________________________________________
Greets:
All our home site staff for getting us such great sources :-) also our friends
LEGiON,JTR,RealGoneKid,BHRG,Dirty Mary,SAFC,THEROCK,BBnRG,THC,PRESTiGE,AbSurdiTy,aTLas,Feel-Free CrEwSaDe members Past and present, all other p2pgroups past and present,and all other p2pgroups past That made all this possible and the present ones that continue to work so hard at what we do
__________________________________________________________________________________
CrEwSaDe are currently Looking for unreleased DVD's,Screeners,New Music Releases,R5's,Audio,Cams,
Silvers,syncers,cammers and Any Other Good Sources You May Have To Offer
Contact us @ /*
13 Sins 2014 LIMITED BRRIP AC3 x264 CrEwSaDe



Free Link Download uploadable.ch
http://www.uploadable.ch/file/q8wwVvqyD4rr/j0gam.13.Sins.2014.LIMITED.BRRIP.AC3.x264.CrEwSaDe.rar

Buy Premium Download LinkRapidgator Max Speed
http://rapidgator.net/file/6782e0ee25760723f31479205c394fb2/j0gam.13.Sins.2014.LIMITED.BRRIP.AC3.x264.CrEwSaDe.rar.html
Direct Download

Tags: LIMITED, CrEwSaDe
Key Civil d bit | Akon Trouble Album Download Rar | Nora Sofie And Lilu Reallifecam Videos | Activator Windous Pro | Descarca Filmul Gallowwalker Online Subtitrat | Cfa Level Vedios | Provide File Installation Key Matlab | Sonakshi Sinhanudeohoto Com | Descargar Sasha Soundlab Full | Larkin Love Compilation Online | Metro Shrink Url Shortener Rk Rsnr Rk Rsycjdv Gpyvx | Article Directory All Rights Reserved Post Article Comments Rsada Mzyt | Sniper Elite English | Steve And Francine Fucks | Calculus Late Transcendentals th Edition | G Data Antivirus Serial shared | Key To Activate Office | Download Windows Activation Tool | Bollywood Badmasti | Bazzar Sax Parn

13 Sins 2014 LIMITED BRRIP AC3 x264 CrEwSaDe Download via Hotfile Rapidshare Fileserve Megaupload & FileSonic, 13 Sins 2014 LIMITED BRRIP AC3 x264 CrEwSaDe free torrent downloads included crack, serial, keygen.


Add comments

Your Name:
Your E-Mail:

Security Code:
Include security image CAPCHA.
update code
Insert Code: