A Million Ways To Die In The West 2014 CAM V2 AC3 x264 TiTAN

Download Now

A Million Ways To Die In The West 2014 CAM V2 AC3 x264 TiTAN

A Million Ways To Die In The West 2014 CAM V2 AC3 x264 TiTAN | 1.05 GB

File: A Million Ways To Die In The West 2014 CAM V2 AC3 x264 TiTAN.mkv
Size: 1123651534 bytes (1.05 GiB), duration: 01:49:14, avg.bitrate: 1372 kb/s
Audio: ac3, 48000 Hz, stereo
Video: h264, yuv420p, 704x336, 29.97 fps(r)
http://www.imdb.com/title/tt2557490/

As a cowardly farmer begins to fall for the mysterious new woman in town, he must put his new-found courage to the test when her husband, a notorious gun-slinger, announces his arrival.

Title:A Million Ways to Die in the West
Year:2014
Rating:6.4
Genre:Comedy / Western
Director:Seth MacFarlane
Cast:Seth MacFarlane / Charlize Theron / Amanda Seyfried / Liam Neeson / Giovanni Ribisi / Neil Patrick Harris / Sarah Silverman / Christopher Hagen / Wes Studi / Matt Clark / Evan Jones / Aaron McPherson / Rex Linn / Brett Rickaby / Alex Borstein

A Million Ways To Die In The West 2014 CAM V2 AC3 x264 TiTAN


NFo Notes
A Million Ways To Die In The West 2014 CAM V2 AC3 x264 TiTAN
http://www.imdb.com/title/tt2557490/
General
OK got the non site watermarked vid.. so decided to do a V2 as vid was also somewhat better.. pretty watchable copy, like the last one dark in some scenes.. but overall not bad.. Enjoy or wait for better.
General
Format : Matroska
Format version : Version 2
File size : 1.05 GiB
Duration : 1h 49mn
Overall bit rate mode : Variable
Overall bit rate : 1 371 Kbps
Encoded date : UTC 2014-06-07 18:01:56
Writing application : mkvmerge v6.9.1 ('Blue Panther') 32bit built on Apr 18 2014 18:15:44
Writing library : libebml v1.3.0 + libmatroska v1.4.1
Video
ID : 1
Format : AVC
Format/Info : Advanced Video Codec
Format profile : /*
Format settings, CABAC : Yes
Format settings, ReFrames : 3 frames
Codec ID : V_MPEG4/ISO/AVC
Duration : 1h 49mn
Bit rate mode : Variable
Bit rate : 1 152 Kbps
Maximum bit rate : 40.0 Mbps
Width : 704 pixels
Height : 336 pixels
Display aspect ratio : 2.095
Frame rate mode : Constant
Frame rate : 29.970 fps
Color space : YUV
Chroma subsampling : 4:2:0
Bit depth : 8 bits
Scan type : Progressive
Bits/(Pixel*Frame) : 0.163
Stream size : 900 MiB (84%)
Writing library : x264 core 142 r2431 ac76440
Default : Yes
Forced : No
Color primaries : BT.709
Transfer characteristics : BT.709
Matrix coefficients : BT.709
Audio
ID : 2
Format : AC-3
Format/Info : Audio Coding 3
Mode extension : CM (complete main)
Format settings, Endianness : Big
Codec ID : A_AC3
Duration : 1h 49mn
Bit rate mode : Constant
Bit rate : 192 Kbps
Channel(s) : 2 channels
Channel positions : Front: L R
Sampling rate : 48.0 KHz
Bit depth : 16 bits
Compression mode : Lossy
Stream size : 150 MiB (14%)
Default : Yes
Forced : No
A Million Ways To Die In The West 2014 CAM V2 AC3 x264 TiTAN
A Million Ways To Die In The West 2014 CAM V2 AC3 x264 TiTAN
A Million Ways To Die In The West 2014 CAM V2 AC3 x264 TiTAN
A Million Ways To Die In The West 2014 CAM V2 AC3 x264 TiTAN
A Million Ways To Die In The West 2014 CAM V2 AC3 x264 TiTAN
A Million Ways To Die In The West 2014 CAM V2 AC3 x264 TiTAN
A Million Ways To Die In The West 2014 CAM V2 AC3 x264 TiTAN
A Million Ways To Die In The West 2014 CAM V2 AC3 x264 TiTAN
A Million Ways To Die In The West 2014 CAM V2 AC3 x264 TiTAN
A Million Ways To Die In The West 2014 CAM V2 AC3 x264 TiTAN




Free Link Download uploadable.ch
http://www.uploadable.ch/file/UR74ddwJQBau/9jvgc.A.Million.Ways.To.Die.In.The.West.2014.CAM.V2.AC3.x264.TiTAN.rar

Buy Premium Download LinkRapidgator Max Speed
http://rapidgator.net/file/a1927d33aed018a39c84434622bd0ff8/9jvgc.A.Million.Ways.To.Die.In.The.West.2014.CAM.V2.AC3.x264.TiTAN.rar.html
http://rapidgator.net/file/ec2d3c6ecb182e400974a7e7a23f948d/9jvgc.A.Million.Ways.To.Die.In.The.West.2014.CAM.V2.AC3.x264.TiTAN.rar.html
Direct Download

Tags: Million
American Accent Course Rules You Must Know Mediafire | Claire Heart Public Agent | Sex Gangster Cheat | Free Download Photoshop Template Zebra | Reallifecam Video | Sasha Grey Torrent | Public Notes Normal Version Login Rsadadqgxj Kfy Rk Rswtfdjtn Jjbzt | Walmart Crack Skyrim Graphics Broken | Public Notes Having Trouble While Logging In Rk Rsljo Sljeg | Elektor Dvd Rapidshare | Freier Fall Film Completo | Crack Resolume Avenue Torrent Download | Reallifecam Gro Ep | Telugusexmovies Poster | Dicovering Autocad | Denied Guestbook Ru | David Laserscan Ner Pro Torrent | Kontakt Torrent Pirate | Tricky Nearly God Zip

A Million Ways To Die In The West 2014 CAM V2 AC3 x264 TiTAN Download via Hotfile Rapidshare Fileserve Megaupload & FileSonic, A Million Ways To Die In The West 2014 CAM V2 AC3 x264 TiTAN free torrent downloads included crack, serial, keygen.


Add comments

Your Name:
Your E-Mail:

Security Code:
Include security image CAPCHA.
update code
Insert Code: