House of 1000 Corpses 2003 BRRip 720p AC3 XviD MutzNutz

Download Now

http://i60.fastpic.ru/big/2013/1128/c4/167dbd2ca45f10fe59c0dfd77c9e7ac4.jpg
House of 1000 Corpses 2003 BRRip 720p AC3 XviD MutzNutz
| 1.84 GB
File: House.of.1000.Corpses.2003.720p.BRRip.Xvid.AC3.MutzNutz.avi
Size: 1967321088 bytes (1.83 GiB), duration: 01:28:57, avg.bitrate: 2949 kb/s
Audio: ac3, 48000 Hz, 5:1, 448 kb/s
Video: mpeg4, yuv420p, 1280x720, 23.98 fps(r)

iMDB iNFO


In "House of 1000 Corpses", two young couples take a misguided tour onto the back roads of America in search of a local legend known as Dr. Satan. Lost and stranded, they are set upon by a bizarre family of psychotics. Murder, cannibalism and satanic rituals are just a few of the 1000+ horrors that await.

Title:House of 1000 Corpses
Year:2003
Rating:5.8
Genre:Horror
Director:Rob Zombie
Cast:Chad Bannon / William Bassett / Karen Black / Erin Daniels / Joe Dobbs III / Judith Drake / Dennis Fimple / Gregg Gibbs / Walton Goggins / Sid Haig / Chris Hardwick / Ken Johnson / Jennifer Jostyn / Irwin Keyes / Matthew McGrory
http://i57.fastpic.ru/big/2013/1128/99/b3075a1ef5ccb1c8520c76749e5d9699.jpg

NFo
Format : AVI
Format/Info : Audio Video Interleave
File size : 1.83 GiB
Duration : 1h 28mn
Overall bit rate : 2 949 Kbps
Writing application : VirtualDubMod 1.5.10.2 (build 2540/release)
Writing library : VirtualDubMod build 2540/release
Video
ID : 0
Format : MPEG-4 Visual
Format profile : Advanced [email protected]
Format settings, BVOP : 1
Format settings, QPel : No
Format settings, GMC : No warppoints
Format settings, Matrix : Default (H.263)
Codec ID : XVID
Codec ID/Hint : XviD
Duration : 1h 28mn
Bit rate : 2 492 Kbps
Width : 1 280 pixels
Height : 720 pixels
Display aspect ratio : 16:9
Frame rate : 23.976 fps
Color space : YUV
Chroma subsampling : 4:2:0
Bit depth : 8 bits
Scan type : Progressive
Compression mode : Lossy
Bits/(Pixel*Frame) : 0.113
Stream size : 1.55 GiB (84%)
Writing library : XviD 1.2.1 (UTC 2008-12-04)
Audio
ID : 1
Format : AC-3
Format/Info : Audio Coding 3
Mode extension : CM (complete main)
Codec ID : 2000
Duration : 1h 28mn
Bit rate mode : Constant
Bit rate : 448 Kbps
Channel(s) : 6 channels
Channel positions : Front: L C R, Side: L R, LFE
Sampling rate : 48.0 KHz
Bit depth : 16 bits
Compression mode : Lossy
Stream size : 285 MiB (15%)
Alignment : Aligned on interleaves
Interleave, duration : 42 ms (1.00 video frame)
Interleave, preload duration : 512 ms
IMDB : http://www.imdb.com/title/tt0251736/

SecureUpload:
http://www.secureupload.eu/qz0yi2gk3g30/74yh9.House.of.1000.Corpses.2003.BRRip.720p.AC3.XviD.MutzNutz.part1.rar
http://www.secureupload.eu/y2ret5ge71y8/74yh9.House.of.1000.Corpses.2003.BRRip.720p.AC3.XviD.MutzNutz.part2.rar

RapidGator:
http://rapidgator.net/file/592a1b45d1ee1fb9fc448f1e1d3b7f79/74yh9.House.of.1000.Corpses.2003.BRRip.720p.AC3.XviD.MutzNutz.part1.rar.html
http://rapidgator.net/file/f62f741e2f254884631dc15caf199a57/74yh9.House.of.1000.Corpses.2003.BRRip.720p.AC3.XviD.MutzNutz.part2.rar.html

RyuShare:
http://ryushare.com/u04ktnpe6t36/74yh9.House.of.1000.Corpses.2003.BRRip.720p.AC3.XviD.MutzNutz.part1.rar
http://ryushare.com/wr72ilkteldl/74yh9.House.of.1000.Corpses.2003.BRRip.720p.AC3.XviD.MutzNutz.part2.rar

Uploaded:
http://uploaded.net/file/sazf02j5/74yh9.House.of.1000.Corpses.2003.BRRip.720p.AC3.XviD.MutzNutz.part1.rar
http://uploaded.net/file/rcbm6nq5/74yh9.House.of.1000.Corpses.2003.BRRip.720p.AC3.XviD.MutzNutz.part2.rar

TurboBit:
http://turbobit.net/5wqfl4r10c49/74yh9.House.of.1000.Corpses.2003.BRRip.720p.AC3.XviD.MutzNutz.part1.rar.html
http://turbobit.net/qqytjxqlibdo/74yh9.House.of.1000.Corpses.2003.BRRip.720p.AC3.XviD.MutzNutz.part2.rar.html
Direct Download

Tags: MutzNutz, Corpses
Free Preteen Pictures Pissing | Tracy Anderson Cardio Dance For Beginners Calories Burned | Asajjventresshe Ntai | Telerik Controls Q Sp Torrent | Unlock Garmin Nt | Excavator Simulator | Chaturbate Video Recorder | Hypermesh Tutorials | Youtube Manycam Of Josie Model | Animal Sex Games For Android | Ekstreme Seks Porno Me Kafshet Shtepijake | E See Me After Class Torrent Download | Edgecam Crack Torrent | Indesign Cs Amtlib Dll Crack | Nymphomaniac Dvdrip Putlocker | shared Streets Of Mayhem | Animal Sex Site | Cfa Qbank Download | Baytown Outlaws Ost | Nora And Sofie Orgin

House of 1000 Corpses 2003 BRRip 720p AC3 XviD MutzNutz Download via Hotfile Rapidshare Fileserve Megaupload & FileSonic, House of 1000 Corpses 2003 BRRip 720p AC3 XviD MutzNutz free torrent downloads included crack, serial, keygen.


Add comments

Your Name:
Your E-Mail:

Security Code:
Include security image CAPCHA.
update code
Insert Code: