The Saratov Approach 2013 BRRip XviD KX

Download Now

The Saratov Approach 2013 BRRip XviD - KX

The Saratov Approach 2013 BRRip XviD - KX | 1.13 GB

File: The.Saratov.Approach.2013.BRRip.XviD - KX.avi
Size: 1209484498 bytes (1.13 GiB), duration: 01:40:41, avg.bitrate: 1602 kb/s
Audio: mp3, 48000 Hz, stereo, 128 kb/s
Video: mpeg4, yuv420p, 672x280, 23.98 fps(r)
http://www.imdb.com/title/tt2887322/
Two missionaries are kidnapped and held for ransom while serving in Russia.


Title:The Saratov Approach
Year:2013
Rating:7.5
Genre:Action / Drama
Director:Garrett Batty
Cast:Corbin Allred / Maclain Nelson / Nikita Bogolyubov / Alex Veadov / Peggy Matheson / Paul Mulder / Jennifer Erekson / Bruce Newbold / Shawn Carter / Christopher S. Clark / Bart Johnson / Brett Merritt / Rocky Myers / Brit Server

The Saratov Approach 2013 BRRip XviD - KX


NFo Notes
KX proundly presents...
The.Saratov.Approach.2013.BRRip.XviD - KX
The Saratov Approach 2013 BRRip XviD - KX
http://www.imdb.com/title/tt2887322/
Two missionaries are kidnapped and held for ransom while serving in Russia.
General
Format : AVI
Format/Info : Audio Video Interleave
Format profile : OpenDML
File size : 1.13 GiB
Duration : 1h 40mn
Overall bit rate : 1 602 Kbps
Writing application : Lavf53.21.1
Video
ID : 0
Format : xvid
Codec ID : xvid
Duration : 1h 40mn
Bit rate : 1 457 Kbps
Width : 672 pixels
Height : 280 pixels
Display aspect ratio : 2.40:1
Frame rate : 23.976 fps
Bits/(Pixel*Frame) : 0.323
Stream size : 1.02 GiB (91%)
Audio
ID : 1
Format : MPEG Audio
Format version : Version 1
Format profile : Layer 3
Mode : Joint stereo
Mode extension : MS Stereo
Codec ID : 55
Codec ID/Hint : MP3
Duration : 1h 40mn
Bit rate mode : Constant
Bit rate : 128 Kbps
Channel(s) : 2 channels
Sampling rate : 48.0 KHz
Compression mode : Lossy
Stream size : 92.2 MiB (8%)
Alignment : Aligned on interleaves
Interleave, duration : 24 ms (0.58 video frame)
Writing library : LAME3.99.3
Screens
The Saratov Approach 2013 BRRip XviD - KX
The Saratov Approach 2013 BRRip XviD - KX
The Saratov Approach 2013 BRRip XviD - KX
The Saratov Approach 2013 BRRip XviD - KX

Free Link Download uploadable.ch
http://www.uploadable.ch/file/V4hkpxCn65kh/cnqd0.The.Saratov.Approach.2013.BRRip.XviD..KX.rar

Buy Premium Download Link letitbit.net Max Speed
http://u32969001.letitbit.net/download/62713.66c05ee49d4bc7073a80e2bc2ccb/cnqd0.The.Saratov.Approach.2013.BRRip.XviD..KX.rar.html

Buy Premium Download Link oboom.com Max Speed
https://www.oboom.com/50ML5GRB/cnqd0.The.Saratov.Approach.2013.BRRip.XviD..KX.rar
Direct Download

Tags: Saratov, Approach
Mastercam X For Solidworks Win Torr | Table Tent Mocup Photoshop | Investments Asia Global Edition Download | Mac Os Mavericks Virtual Box | Dncemoms Lemons Fanfic | Real Life Cam Sex Movie | Kajal Story In Telugu | Miss July Playmate | Komplete Elements Activation Code | Amtlib Per Cc Mac | Resharper Disable Licence Scan | Intel Atom Hackintosh Yosemite | Download Em Interior Furniture Magento Theme | Fumie Tokikoshi Phot Galleries | Photo Recipes Live Behind The Scenes Part Ebook | Transsexual Baysitters | Remove Wat Win | How Do I Reformat My Mavericks Imac | Windows Ita Pro Iso | Hangover R Hdrip Aac Murder Mkv English Srt

The Saratov Approach 2013 BRRip XviD KX Download via Hotfile Rapidshare Fileserve Megaupload & FileSonic, The Saratov Approach 2013 BRRip XviD KX free torrent downloads included crack, serial, keygen.


Add comments

Your Name:
Your E-Mail:

Security Code:
Include security image CAPCHA.
update code
Insert Code: