Once Upon a Time in Vietnam 2014 ENGDUB DVDRip AC3 x264 - MiLLENiUM

Download Now

Once Upon a Time in Vietnam 2014 ENGDUB DVDRip AC3 x264 - MiLLENiUM

Once Upon a Time in Vietnam 2014 ENGDUB DVDRip AC3 x264 - MiLLENiUM | 1.39 GB
File: Once Upon a Time in Vietnam 2014 ENGDUB DVDRip AC3 x264 - MiLLENiUM.mkv
Size: 1472729012 bytes (1.37 GiB), duration: 01:46:51, avg.bitrate: 1838 kb/s
Audio: ac3, 48000 Hz, 5:1 (eng)
Video: h264, yuv420p, 720x304, 23.98 fps(r)
http://www.imdb.com/title/tt2531258/

While on a mission to retrieve fugitives in Vietnam, Dao, a commander in the Emperor's army, finds himself in the middle of a deadly conflict raging between a tyrannical crime boss, and the peaceful town that he has under his thumb. But when Dao realizes that Ahn, the beautiful monk warrior who fled the Emperor's army is living a secretive new life there, Dao must choose between upholding his oath to the Emperor, and fighting to preserve Ahn's cherished town.



Title:Once Upon a Time in Vietnam
Year:2013
Rating:5.8
Genre:Action
Director:Dustin Nguyen
Cast:Dustin Nguyen / Thanh Van Ngo / Roger Yuan / Thai Hoa / Ngoc Diep / Hieu Hien / Phi Thanh Van / Van Hai Bui / Nguyen Hau / Quang Minh Do / Jason Ninh Cao / Hoang Phuc Nguyen
Once Upon a Time in Vietnam 2014 ENGDUB DVDRip AC3 x264 - MiLLENiUM
NFo Notes
Once Upon a Time in Vietnam 2014 ENGDUB DVDRip AC3 x264 - MiLLENiUM
Once Upon a Time in Vietnam 2014 ENGDUB DVDRip AC3 x264 - MiLLENiUM
General
Source...............: DVDR1 [THANKS]
http://www.imdb.com/title/tt2531258/
Sample Included......: yes
General
Complete name : Once Upon a Time in Vietnam 2014 ENGDUB DVDRip AC3 x264 - MiLLENiUM.mkv
Format : Matroska
Format version : Version 2
File size : 1.37 GiB
Duration : 1h 46mn
Overall bit rate mode : Variable
Overall bit rate : 1 838 Kbps
Encoded date : UTC 2014-07-04 01:18:46
Writing application : mkvmerge v7.0.0 ('Where We Going') 32bit built on Jun 9 2014 15:08:34
Writing library : libebml v1.3.0 + libmatroska v1.4.1
Video
ID : 1
Format : AVC
Format/Info : Advanced Video Codec
Format profile : /*
Format settings, CABAC : Yes
Format settings, ReFrames : 3 frames
Codec ID : V_MPEG4/ISO/AVC
Duration : 1h 46mn
Bit rate mode : Variable
Bit rate : 1 353 Kbps
Maximum bit rate : 40.0 Mbps
Width : 720 pixels
Height : 304 pixels
Display aspect ratio : 2.35:1
Frame rate mode : Constant
Frame rate : 23.976 fps
Color space : YUV
Chroma subsampling : 4:2:0
Bit depth : 8 bits
Scan type : Progressive
Bits/(Pixel*Frame) : 0.258
Stream size : 1.01 GiB (74%)
Writing library : x264 core 142 r2431 ac76440
Audio
ID : 2
Format : AC-3
Format/Info : Audio Coding 3
Mode extension : CM (complete main)
Format settings, Endianness : Big
Codec ID : A_AC3
Duration : 1h 46mn
Bit rate mode : Constant
Bit rate : 448 Kbps
Channel(s) : 6 channels
Channel positions : Front: L C R, Side: L R, LFE
Sampling rate : 48.0 KHz
Bit depth : 16 bits
Compression mode : Lossy
Stream size : 342 MiB (24%)
Language : English
Default : Yes
Forced : No
Description
Assigned to protect a small town in Vietnam, Dao arrives to fight against the crime boss; but soon his past catches up with him, threatening to destroy the cherished village.
Screenshots
Once Upon a Time in Vietnam 2014 ENGDUB DVDRip AC3 x264 - MiLLENiUM
Once Upon a Time in Vietnam 2014 ENGDUB DVDRip AC3 x264 - MiLLENiUM
Once Upon a Time in Vietnam 2014 ENGDUB DVDRip AC3 x264 - MiLLENiUM
Once Upon a Time in Vietnam 2014 ENGDUB DVDRip AC3 x264 - MiLLENiUM
Once Upon a Time in Vietnam 2014 ENGDUB DVDRip AC3 x264 - MiLLENiUM
Once Upon a Time in Vietnam 2014 ENGDUB DVDRip AC3 x264 - MiLLENiUM
Once Upon a Time in Vietnam 2014 ENGDUB DVDRip AC3 x264 - MiLLENiUM



Free Link Download Uploadable.ch
http://www.uploadable.ch/file/ZpyvgDhUxYbs/wzvyy.Once.Upon.a.Time.in.Vietnam.2014.ENGDUB.DVDRip.AC3.x264..MiLLENiUM.part1.rar
http://www.uploadable.ch/file/ek958kdDvvqM/wzvyy.Once.Upon.a.Time.in.Vietnam.2014.ENGDUB.DVDRip.AC3.x264..MiLLENiUM.part2.rar


Buy Premium Rapidgator.net Download Link Max Speed
http://rapidgator.net/file/db4e3d44c29eb138edc9e372a79db3a6/wzvyy.Once.Upon.a.Time.in.Vietnam.2014.ENGDUB.DVDRip.AC3.x264..MiLLENiUM.part1.rar.html
http://rapidgator.net/file/8d229ce834e6744836674510ab4caf81/wzvyy.Once.Upon.a.Time.in.Vietnam.2014.ENGDUB.DVDRip.AC3.x264..MiLLENiUM.part2.rar.html


Buy Premium Uploaded.net Download Link Max Speed
http://uploaded.net/file/1lwwgbf6/wzvyy.Once.Upon.a.Time.in.Vietnam.2014.ENGDUB.DVDRip.AC3.x264..MiLLENiUM.part1.rar
http://uploaded.net/file/zx7j85vt/wzvyy.Once.Upon.a.Time.in.Vietnam.2014.ENGDUB.DVDRip.AC3.x264..MiLLENiUM.part2.rar
Direct Download

Tags: Vietnam, ENGDUB, DVDRip, MiLLENiUM
Dreazen Boll Ze Game Download Torrents | Keyshot Torrent | Login And Password Digital Playground | Prestige Left Menu Pages Psd | Loginquo T Normal Version Public Notes Opening Rk Rsxdfnc Rk Rshxc | P Warrior Workout Rapidgator | Autocad Lt Torrent | Bass Kompa Live | Maya Gmh Hair Script | Expert Authors Article Directory All Rights Reserved Rk Rso gfao bwruk | Digital Tv Broadcaster | Yoga Underessed Advanced Video Rk Rs | Otec I Doch Skachat | Baskery New Friends Blog Depositfiles | Install Nude Mods In Re | Aerobic Music Video Torrent | Cisa Review Manual Torrent File Rk Rsvzplax m | Driver Genius Professional V Serial | Retuparna Sengupta Nacked Fuck Wallpaper | Ugrammkannadamo Viewikipedia

Once Upon a Time in Vietnam 2014 ENGDUB DVDRip AC3 x264 - MiLLENiUM Download via Hotfile Rapidshare Fileserve Megaupload & FileSonic, Once Upon a Time in Vietnam 2014 ENGDUB DVDRip AC3 x264 - MiLLENiUM free torrent downloads included crack, serial, keygen.


Add comments

Your Name:
Your E-Mail:

Security Code:
Include security image CAPCHA.
update code
Insert Code: