My Friend Irma 1949 Dvdrip XviD

Download Now

My Friend Irma 1949 Dvdrip XviD

My Friend Irma 1949 Dvdrip XviD - OlFa | 1.39 GB
File: My Friend Irma 1949 Dvdrip XviD - OlFa.avi
Size: 1468035072 bytes (1.37 GiB), duration: 01:42:56, avg.bitrate: 1902 kb/s
Audio: mp3, 48000 Hz, stereo, 128 kb/s
Video: mpeg4, yuv420p, 720x544, 23.98 fps(r)
http://www.imdb.com/title/tt0041673/

Based on the long-running radio show. Irma is a likeable airhead who meddles in her roommate's love-life. Dean Martin and Jerry Lewis, in their first screen appearance, are juice-bar operators who are discovered when a self-proclaimed manager hears Martin's golden voice. Irma's roommate wants to marry her rich boss, but instead falls in love with Martin.

Title:My Friend Irma
Year:1949
Rating:6.5
Genre:Comedy / Romance
Director:George Marshall
Cast:John Lund / Diana Lynn / Don DeFore / Marie Wilson / Dean Martin / Jerry Lewis / Hans Conried / Kathryn Givney / Percy Helton / Gloria Gordon / Ern寐?Verebes / Margaret Field
My Friend Irma 1949 Dvdrip XviD
NFo Notes
My Friend Irma 1949 Dvdrip XviD - OlFa
Video: 720x544 Xvid
Audio: English MP3
Subs: English HI in .srt, English full in .idx/.sub
Genre: Comedy | Romance
http://www.imdb.com/title/tt0041673/
Ratings: 6.5/10 from 528 users
Description: Prototype dumb blonde Irma and her slacker, wheeler - DEALer
boyfriend Al interfere in the love life of Irma's level-headed
room mate Jane.
Director: George Marshall
Cast:
John Lund ... Al
Diana Lynn ... Jane Stacy
Don DeFore ... Richard Rhinelander
Marie Wilson ... Irma Peterson
Dean Martin ... Steve
Jerry Lewis ... Seymour
Format : AVI
Format/Info : Audio Video Interleave
File size : 1.37 GiB
Duration : 1h 42mn
Overall bit rate : 1 902 Kbps
Writing application : VirtualDubMod 1.5.4.1 (build 2178/release)
Writing library : VirtualDubMod build 2178/release
Video
ID : 0
Format : MPEG-4 Visual
Format profile : Advanced [email protected]
Format settings, BVOP : 1
Format settings, QPel : No
Format settings, GMC : No warppoints
Format settings, Matrix : Default (H.263)
Muxing mode : Packed bitstream
Codec ID : XVID
Codec ID/Hint : XviD
Duration : 1h 42mn
Bit rate : 1 766 Kbps
Width : 720 pixels
Height : 544 pixels
Display aspect ratio : 4:3
Frame rate : 23.976 fps
Color space : YUV
Chroma subsampling : 4:2:0
Bit depth : 8 bits
Scan type : Progressive
Compression mode : Lossy
Bits/(Pixel*Frame) : 0.188
Stream size : 1.27 GiB (93%)
Writing library : XviD 1.2.0.dev47 (UTC 2006-11-01)
Audio
ID : 1
Format : MPEG Audio
Format version : Version 1
Format profile : Layer 3
Mode : Joint stereo
Mode extension : MS Stereo
Codec ID : 55
Codec ID/Hint : MP3
Duration : 1h 42mn
Bit rate mode : Constant
Bit rate : 128 Kbps
Channel(s) : 2 channels
Sampling rate : 48.0 KHz
Compression mode : Lossy
Stream size : 94.2 MiB (7%)
Alignment : Aligned on interleaves
Interleave, duration : 83 ms (2.00 video frames)
Interleave, preload duration : 504 ms
Writing library : LAME3.97

Free Link Download Uploadable.ch :
http://www.uploadable.ch/file/2t5akmEX4wfB....OlFa.part1.rar
http://www.uploadable.ch/file/rgAjws7xpV4a....OlFa.part2.rar

Buy Premium Uploaded.net Download Link Max Speed :
http://uploaded.net/file/4ks16tze/tnlaq.My....OlFa.part1.rar
http://uploaded.net/file/l1itpf88/tnlaq.My....OlFa.part2.rar

Buy Premium Ddlstorage Download Link Max Speed:
http://www.ddlstorage.com/je4kg817c5ux/tnl...a.part1.rar.htm
http://www.ddlstorage.com/r2xn9b0tnpf3/tnl...a.part2.rar.htm
Direct Download

Tags: Dvdrip, Friend
Hentai Loli Catagory | Terms Of Service Public Notes Normal Version Rk Rs Rk Rsx | Sanilion Xvid Video | Lumino City Osx Torrent | Star Stable Hack Tool | Nis Box Trial Reseter | Digit Serial Number For Rescue | Ala In Pantyhose Picture Set | Embarcadero Rad Studio Xe Architect Multilingual Patch Download | House Ejay Torrent | Windows Pro Kmspico | Anydown In Fo Down Siberia N Mouse Pics Se T Mm | Career Academy Certified Ethical Hacker V Training Torrent | Artofzoo Yasmin Video | The Master Vose Torrent | Mechanic Dvdrip Mp | Avast Premier Activator | Skyrim Animal Mansion | Free Download Exam Ref | Avatar Toolkit Full

My Friend Irma 1949 Dvdrip XviD Download via Hotfile Rapidshare Fileserve Megaupload & FileSonic, My Friend Irma 1949 Dvdrip XviD free torrent downloads included crack, serial, keygen.


Add comments

Your Name:
Your E-Mail:

Security Code:
Include security image CAPCHA.
update code
Insert Code: