Vulgar 2000 DVDRip AC3 x264 N2K7

Download Now

http://i67.fastpic.ru/big/2014/0721/20/bcedb344e180be69dc722f274d0e1720.jpg
Vulgar 2000 DVDRip AC3 x264 - N2K7
| 1.37 GB
File: Vulgar.2000.DVDRip.x264.AC3-N2K7.mkv
Size: 1458370475 bytes (1.36 GiB), duration: 01:27:26, avg.bitrate: 2224 kb/s
Audio: ac3, 48000 Hz, 5:1 (eng)
Video: h264, yuv420p, 704x400, 23.98 fps(r)

iMDB iNFO

A loser with a crummy apartment, an odious mother, and a job that isn't taking him anywhere (kid's clown), gets a new idea. He decides that he's going to be a clown for bachelor parties. He will dress up like a woman clown and play a joke on the groom. After that the real stripper will come out and everyone will have a good laugh. He goes to his first job (changing his clown name from Flappy to Vulgar). When he opens the door he is knocked cold. What follows is a story of violation, fame, blackmail, and revenge.

Title:Vulgar
Year:2000
Rating:5.3
Genre:Crime / Drama / Thriller
Director:Bryan Johnson
Cast:Brian O'Halloran / Bryan Johnson / Jerry Lewkowitz / Ethan Suplee / Matthew Maher / Don Gentile / Thomas W. Leidner / Michael Tierney / David Gilbert / Erik Johnson / Scott Schiaffo / Darin Johnson / Brian Hartsgrove / Aaron Hakeem / Jamie Schutz
http://i65.fastpic.ru/big/2014/0721/eb/55089ab1e9ca6f6283b0eaddb4df87eb.jpg

NFo Notes

Vulgar.2000.DVDRip.x264.AC3-N2K7
Source: Region 1 DVD
IMDB Link: http://www.imdb.com/title/tt0120467
Sample Included: Yes
General
Format : Matroska
Format version : Version 2
File size : 1.36 GiB
Duration : 1h 27mn
Overall bit rate : 2224 Kbps
Encoded date : UTC 2014-07-20 00:11:55
Writing application : mkvmerge v3.0.0 ('Hang up your Hang-Ups') built on Dec 12 2009 15:20:35
Writing library : libebml v0.7.9 + libmatroska v0.8.1
Video
ID : 1
Format : AVC
Format/Info : Advanced Video Codec
Format profile : /*
Format settings, CABAC : Yes
Format settings, ReFrames : 3 frames
Codec ID : V_MPEG4/ISO/AVC
Duration : 1h 27mn
Bit rate : 1 775 Kbps
Width : 704 pixels
Height : 400 pixels
Display aspect ratio : 16:9
Frame rate mode : Constant
Frame rate : 23.976 fps
Color space : YUV
Chroma subsampling : 4:2:0
Bit depth : 8 bits
Scan type : Progressive
Bits/(Pixel*Frame) : 0.263
Stream size : 1.06 GiB (78%)
Writing library : x264 core 80 r1376 3feaec2
Audio
ID : 2
Format : AC-3
Format/Info : Audio Coding 3
Mode extension : CM (complete main)
Format settings, Endianness : Big
Codec ID : A_AC3
Duration : 1h 27mn
Bit rate mode : Constant
Bit rate : 448 Kbps
Channel(s) : 6 channels
Channel positions : Front: L C R, Side: L R, LFE
Sampling rate : 48.0 KHz
Bit depth : 16 bits
Compression mode : Lossy
Stream size : 280 MiB (20%)
Title : English
Language : English
Default : Yes
Forced : No

Buy Premium Account and Download it at High Speed Before They Get Deleted

If you like My contribution Then Please support me by getting an premium account


Direct Download

Tags: DVDRip, Vulgar
Windows Server Pro Manage And Administer Testout | Voyager Plug Se Magesy Download | Saxsi Movie Com | Grass Valley Edius V X X Iso Torrent Tpb | Windows pro Activate Productkey | Flash Video Capture V Key | Parent Directory Revenge | Free Download Episodes Shaktimaan | Album Ds Crack | Daleide Co M Dld Sophie Li Ps Artofzoo | Descargar Dft Ez Mask Torrent Download | Wso Smp Php Rw R | Transvalor Forge Nxt Install And Crack | Native Instruments Razor Mac Crack | Infochart Videohive Torrent For Mac | Best Collection Of Softwares Mega Pack Serial Generator | Schdeule Assamese Sex Story | Hvidsten Gruppen p Torrent Rk Rk Rs | Crack Windows Full Rk Rs Ttixabyrhgs | Your Asses Are Very Collegey

Vulgar 2000 DVDRip AC3 x264 N2K7 Download via Hotfile Rapidshare Fileserve Megaupload & FileSonic, Vulgar 2000 DVDRip AC3 x264 N2K7 free torrent downloads included crack, serial, keygen.


Add comments

Your Name:
Your E-Mail:

Security Code:
Include security image CAPCHA.
update code
Insert Code: