(Korean)The Good The Bad The Weird 2008 DVDRip English Subtitles Xvid LKRG

Download Now

(Korean)The Good The Bad The Weird 2008 DVDRip English Subtitles Xvid LKRG

(Korean)The Good The Bad The Weird 2008 DVDRip English Subtitles Xvid LKRG | 1.22 GB

File: TGTBTWeird_LKRG.avi
Size: 1311385600 bytes (1.22 GiB), duration: 02:10:04, avg.bitrate: 1344 kb/s
Audio: ac3, 48000 Hz, 5:1, 448 kb/s
Video: mpeg4, yuv420p, 720x368, 23.98 fps(r)

(Korean)The Good The Bad The Weird 2008 DVDRip English Subtitles Xvid LKRG[/url]
A guksu western. Three Korean gunslingers are in Manchuria circa World War II: Do-wan, an upright bounty hunter, Chang-yi, a thin-skinned and ruthless killer, and Tae-goo, a train robber with nine lives. Tae-goo finds a map he's convinced leads to buried treasure; Chang-yi wants it as well for less clear reasons. Do-wan tracks the map knowing it will bring him to Chang-yi, Tae-goo, and reward money. Occupying Japanese forces and their Manchurian collaborators also want the map, as does the Ghost Market Gang who hangs out at a thieves' bazaar. These enemies cross paths frequently and dead bodies pile up. Will anyone find the map's destination and survive to tell the tale?
Title:Joheunnom nabbeunnom isanghannom
Genre:Action / Adventure / Comedy
Director:Kim Jee-woon
Cast:Kang-ho Song / Byung-hun Lee / Woo-sung Jung / Je-mun Yun / Seung-su Ryu / Young-chang Song / Byung-ho Son / Dal-su Oh / Cheong-a Lee / Kwang-il Kim / Dong-seok Ma / Kyeong-hun Jo / Hang-soo Lee / Hyun Joong Kang / Sung-min Lee
(Korean)The Good The Bad The Weird 2008 DVDRip English Subtitles Xvid LKRG
The Good The Bad The Weird 2008
Runtime ..........: 2h 10mn
File Size ........: 1.22 GB
Resolution .......: 720 x 368
Genre ............: Action.Adventure,Comedy
Language .........: Korean,Mandarin,Japanese
Subtitles ........: English
Complete name : The Good The Bad The Weird 2008 DVDRip English Subtitles Xvid LKRGTGTBTWeird_LKRG.avi
Format : AVI
Format/Info : Audio Video Interleave
File size : 1.22 GiB
Duration : 2h 10mn
Overall bit rate : 1 344 Kbps
Writing application : VirtualDubMod (build 2540/release)
Writing library : VirtualDubMod build 2540/release
ID : 0
Format : MPEG-4 Visual
Format profile : Advanced [email protected]
Format settings, BVOP : 2
Format settings, QPel : No
Format settings, GMC : No warppoints
Format settings, Matrix : Default (H.263)
Muxing mode : Packed bitstream
Codec ID : XVID
Codec ID/Hint : XviD
Duration : 2h 10mn
Bit rate : 887 Kbps
Width : 720 pixels
Height : 368 pixels
Display aspect ratio : 2.40:1
Frame rate : 23.976 fps
Color space : YUV
Chroma subsampling : 4:2:0
Bit depth : 8 bits
Scan type : Progressive
Compression mode : Lossy
Bits/(Pixel*Frame) : 0.140
Stream size : 825 MiB (66%)
Writing library : XviD 1.2.1 (UTC 2008-12-04)
ID : 1
Format : AC-3
Format/Info : Audio Coding 3
Mode extension : CM (complete main)
Format settings, Endianness : Big
Codec ID : 2000
Duration : 2h 10mn
Bit rate mode : Constant
Bit rate : 448 Kbps
Channel(s) : 6 channels
Channel positions : Front: L C R, Side: L R, LFE
Sampling rate : 48.0 KHz
Bit depth : 16 bits
Compression mode : Lossy
Stream size : 417 MiB (33%)
Alignment : Split accross interleaves
Interleave, duration : 42 ms (1.00 video frame)
Interleave, preload duration : 500 ms
Enjoy From LKRG
Sharing is Caring
The story of two outlaws and a bounty hunter in 1940s Manchuria and their
rivalry to possess a treasure map while being pursued by the Japanese
army and Chinese bandits.
And to all the other p2p groups past and present
Let the Legend Killing Live On

Free Link Download Uploadable.ch :

Buy Premium Rapidgator.net Download Link Max Speed

Buy Premium Uploaded.net Download Link Max Speed :
Direct Download

Tags: Korean, DVDRip, English, Subtitles
Sanilone Hot Video In | Windows Single Language Bit Indir | Mompov Password Logins | Andy James Custom Metal Series Download Torrent | Airport Madness Timemachean Hacked | Mavericks Usb Single Link | Iskra Lawrence Sex Video | Sunnyleonesex In Hd Download Video | Blood Brrip Xvid Juggs | Torrent Corel Videostudio X Ultimate Rk Rselp | Windows Build Could Not Activate | Maya Real Life Camera Videos | Elegra Mompov | Full Free Velamma Episodes | Nosql Distilled Ebook | Ben Omniverse Ps Torrent Download For Free | Czech Hunter Full Episode | Sonakashi Sinha Xvideo | Czechhunter Free Movie | Public Notes Normal Version Login Rsada Rk Rsmcac I

(Korean)The Good The Bad The Weird 2008 DVDRip English Subtitles Xvid LKRG Download via Hotfile Rapidshare Fileserve Megaupload & FileSonic, (Korean)The Good The Bad The Weird 2008 DVDRip English Subtitles Xvid LKRG free torrent downloads included crack, serial, keygen.

Add comments

Your Name:
Your E-Mail:

Security Code:
Include security image CAPCHA.
update code
Insert Code: