Interstellar 2014 HDCAM NEW SOURCE READNFO XVID AC3 ACAB

Download Now

http://i6.imageban.ru/out/2014/12/29/0043e91ec4e877e70db55dc5879619fe.jpg

Interstellar 2014 HDCAM NEW SOURCE READNFO XVID AC3 ACAB
Rating 9.1 / 10104,554 people voted
Released 2014
Genre Adventure, Sci-Fi
Actors Matthew McConaughey, Anne Hathaway, Jessica Chastain

IMDB link

A group of explorers make use of a newly discovered wormhole to surpass the limitations on human space travel and conquer the vast distances involved in an interstellar voyage.


http://i6.imageban.ru/out/2014/12/29/0043e91ec4e877e70db55dc5879619fe.jpg

Interstellar 2014 HDCAM NEW SOURCE READNFO XVID AC3 ACAB
Rating 9.1 / 10104,554 people voted
Released 2014
Genre Adventure, Sci-Fi
Actors Matthew McConaughey, Anne Hathaway, Jessica Chastain

IMDB link

A group of explorers make use of a newly discovered wormhole to surpass the limitations on human space travel and conquer the vast distances involved in an interstellar voyage.

http://i66.fastpic.ru/thumb/2014/1229/1a/bc35a6dca581e51a06fb41fba0457c1a.jpeg
http://i66.fastpic.ru/thumb/2014/1229/53/001cbd6cc12482b207bc5d7a6213af53.jpeg
http://i66.fastpic.ru/thumb/2014/1229/b0/5847fe4ccb55068cb9733d9e90fb31b0.jpeg

Not Sure What To Label This As So Went With HDCAM. Got The P2P Vobs And Went To Work. Did Usual Resized Crop As Neccessary. Video Is Best Until Retail You Wont See Better. Audio Is Also Good Bit Loud In Parts but Enjoyable :) . Chinese Subs Appear Every So Often But Not Enough To Spoil Video. Enjoy....Format : AVIFormat/Info : Audio Video InterleaveFormat profile : OpenDMLFile size : 2.60 GiBDuration : 2h 49mnOverall bit rate : 2 197 KbpsWriting library : VirtualDub build 30091/releaseVideoID : 0Format : MPEG-4 VisualFormat profile : Advanced [email protected] settings, BVOP : 2Format settings, QPel : NoFormat settings, GMC : No warppointsFormat settings, Matrix : Default (H.263)Muxing mode : Packed bitstreamCodec ID : XVIDCodec ID/Hint : XviDDuration : 2h 49mnBit rate : 1 799 KbpsWidth : 720 pixelsHeight : 304 pixelsDisplay aspect ratio : 2.35:1Frame rate : 29.970 fpsColor space : YUVChroma subsampling : 4:2:0Bit depth : 8 bitsScan type : ProgressiveCompression mode : LossyBits/(Pixel*Frame) : 0.274Stream size : 2.13 GiB (82%)Writing library : XviD 66AudioID : 1Format : AC-3Format/Info : Audio Coding 3Mode extension : CM (complete main)Format settings, Endianness : BigCodec ID : 2000Duration : 2h 49mnBit rate mode : ConstantBit rate : 384 KbpsChannel(s) : 6 channelsChannel positions : Front: L C R, Side: L R, LFESampling rate : 48.0 KHzBit depth : 16 bitsCompression mode : LossyStream size : 466 MiB (17%)Alignment : Aligned on interleavesInterleave, duration : 33 ms (1.00 video frame)Interleave, preload duration : 512 ms



Download Links:

Direct Download

Tags: READNFO, SOURCE, Interstellar
Tureski Serial Sapax Klubniki | Slow Install Of Quickbooks On Windows | Dyslexia Most Popular Articles Article Directory All Rights Reserved Rk Rshxejhgas | Torrent Mag Link Siberian Mouses | Serial Number Vitascene V | Ba Pass Movei Video | Free Dax Formulas For Powerpivot A Simple Guide To The Excel | Videohive Unitedmotions Free Download | Dwonlod Film Bokep Barat | Xforce Adobe Acrobat Pro Keygen | Serial Start Is Back | Little Girls Anime Porn | Australia Single Mapv | Va Ministry Of Sound Running Trax Winter Torrent | White Dream Admin Panel Free Dowland Rk Rsmx Y | Semelike C Om Tag How To C Rack Band In A Box | Paper Suitcase Template | Supereurobeat Hits Rar | Build Public Notes Normal Version Login Lion Rk Rs fhgzqibcmhfr | Lolita Guestbooks Catallog

Interstellar 2014 HDCAM NEW SOURCE READNFO XVID AC3 ACAB Download via Hotfile Rapidshare Fileserve Megaupload & FileSonic, Interstellar 2014 HDCAM NEW SOURCE READNFO XVID AC3 ACAB free torrent downloads included crack, serial, keygen.


Add comments

Your Name:
Your E-Mail:

Security Code:
Include security image CAPCHA.
update code
Insert Code: