The Night That Changed America Grammy Salute to the Beatles 2014 [HDTV 1080i]

Download Now

http://i33.fastpic.ru/big/2014/0212/6c/2d886d7d95b40120c1674ace52651d6c.jpg

The Night That Changed America: Grammy Salute to the Beatles (2014)
MPEG2 Video 1920x1080, 29.97 fps, 15.4 Mbps | Dolby AC3, 48000Hz, 6 ch, 384 Kbps
Rock | ~ 00:32:00 | ~ 4.0 Gb

~ Paul McCartney and Ringo Starr ~
Celebrating the 50th anniversary of The Beatles debut on the Ed Sullivan Show on February 9, 1964



"The Grammy Salute "The Beatles: The Night That Changed America celebrated the 50th anniversary of The Beatles' first appearance on "The Ed Sullivan Show". The show aired on CBS on February 9th exactly 50 years to the day, date, and time of the original event. This first appearance on "The Ed Sullivan Show" is one of the most watched television events ever - with 74 million people tuning in to watch the group perform five songs during the variety hour. It is considered by many historians, critics, artists and viewers as one of the most important moments in music and television...

~ examiner"
Tracklist:

Paul McCartney and Ringo Starr:
01 Sgt. Pepper's Lonely Hearts Club Band
02 With A Little Help From My Friends
03 Hey Jude

Paul McCartney:
01 Birthday
02 Get Back
03 I Saw Her Standing There

Ringo Starr:
01 Matchbox
02 Boys
03 Yellow Submarine

http://i60.fastpic.ru/big/2014/0212/b1/f4e548154bc2a349015263b4e658f3b1.jpg

MediaInfoGeneral
ID : 1 (0x1)
Complete name : F:UPMixThe Beatles - The Night That Changed America - A Grammy Salute - Paul McCartney and Ringo StarrPaul McCartney and Ringo Starr 2014-01-27 Grammy Salute to The Beatles.ts
Format : MPEG-TS
File size : 1.35 GiB
Duration : 11mn 37s
Overall bit rate mode : Variable
Overall bit rate : 16.7 Mbps

Video
ID : 49 (0x31)
Menu ID : 1 (0x1)
Format : MPEG Video
Format version : Version 2
Format profile : [email protected]
Format settings, BVOP : Yes
Format settings, Matrix : Custom
Format settings, GOP : Variable
Codec ID : 2
Duration : 11mn 37s
Bit rate mode : Variable
Bit rate : 15.4 Mbps
Maximum bit rate : 80.0 Mbps
Width : 1 920 pixels
Height : 1 080 pixels
Display aspect ratio : 16:9
Frame rate : 29.970 fps
Color space : YUV
Chroma subsampling : 4:2:0
Bit depth : 8 bits
Scan type : Interlaced
Scan order : Top Field First
Compression mode : Lossy
Bits/(Pixel*Frame) : 0.249
Time code of first frame : 00:00:00;00
Time code source : Group of pictures header
Stream size : 1.25 GiB (93%)
Color primaries : BT.709
Transfer characteristics : BT.709
Matrix coefficients : BT.709

Audio
ID : 52 (0x34)
Menu ID : 1 (0x1)
Format : AC-3
Format/Info : Audio Coding 3
Mode extension : CM (complete main)
Format settings, Endianness : Big
Codec ID : 129
Duration : 11mn 37s
Bit rate mode : Constant
Bit rate : 384 Kbps
Channel(s) : 6 channels
Channel positions : Front: L C R, Side: L R, LFE
Sampling rate : 48.0 KHz
Bit depth : 16 bits
Compression mode : Lossy
Delay relative to video : 6ms
Stream size : 31.9 MiB (2%)
Language : English

Text #1
ID : 49 (0x31)-CC1
Menu ID : 1 (0x1)
Format : EIA-608
Muxing mode : A/53 / DTVCC Transport
Muxing mode, more info : Muxed in Video #1
Duration : 11mn 37s
Bit rate mode : Constant
Stream size : 0.00 Byte (0%)

Text #2
ID : 49 (0x31)-1
Menu ID : 1 (0x1)
Format : EIA-708
Muxing mode : A/53 / DTVCC Transport
Muxing mode, more info : Muxed in Video #1
Duration : 11mn 37s
Bit rate mode : Constant
Stream size : 0.00 Byte (0%)

Text #3
ID : 49 (0x31)-2
Menu ID : 1 (0x1)
Format : EIA-708
Muxing mode : A/53 / DTVCC Transport
Muxing mode, more info : Muxed in Video #1
Duration : 11mn 37s
Bit rate mode : Constant
Stream size : 0.00 Byte (0%)

General
ID : 1 (0x1)
Complete name : F:UPMixThe Beatles - The Night That Changed America - A Grammy Salute - Paul McCartney and Ringo StarrPaul McCartney on Grammy Salute to The Beatles 2014-01-27.ts
Format : MPEG-TS
File size : 1.28 GiB
Duration : 10mn 53s
Overall bit rate mode : Variable
Overall bit rate : 16.9 Mbps

Video
ID : 49 (0x31)
Menu ID : 1 (0x1)
Format : MPEG Video
Format version : Version 2
Format profile : [email protected]
Format settings, BVOP : Yes
Format settings, Matrix : Default
Format settings, GOP : Variable
Codec ID : 2
Duration : 10mn 53s
Bit rate mode : Variable
Bit rate : 15.6 Mbps
Maximum bit rate : 80.0 Mbps
Width : 1 920 pixels
Height : 1 080 pixels
Display aspect ratio : 16:9
Frame rate : 29.970 fps
Color space : YUV
Chroma subsampling : 4:2:0
Bit depth : 8 bits
Scan type : Interlaced
Scan order : Top Field First
Compression mode : Lossy
Bits/(Pixel*Frame) : 0.252
Time code of first frame : 00:00:00;00
Time code source : Group of pictures header
Stream size : 1.19 GiB (93%)
Color primaries : BT.709
Transfer characteristics : BT.709
Matrix coefficients : BT.709

Audio
ID : 52 (0x34)
Menu ID : 1 (0x1)
Format : AC-3
Format/Info : Audio Coding 3
Mode extension : CM (complete main)
Format settings, Endianness : Big
Codec ID : 129
Duration : 10mn 53s
Bit rate mode : Constant
Bit rate : 384 Kbps
Channel(s) : 6 channels
Channel positions : Front: L C R, Side: L R, LFE
Sampling rate : 48.0 KHz
Bit depth : 16 bits
Compression mode : Lossy
Delay relative to video : 2ms
Stream size : 29.9 MiB (2%)
Language : English

Text #1
ID : 49 (0x31)-CC1
Menu ID : 1 (0x1)
Format : EIA-608
Muxing mode : A/53 / DTVCC Transport
Muxing mode, more info : Muxed in Video #1
Duration : 10mn 53s
Bit rate mode : Constant
Stream size : 0.00 Byte (0%)

Text #2
ID : 49 (0x31)-1
Menu ID : 1 (0x1)
Format : EIA-708
Muxing mode : A/53 / DTVCC Transport
Muxing mode, more info : Muxed in Video #1
Duration : 10mn 53s
Bit rate mode : Constant
Stream size : 0.00 Byte (0%)

Text #3
ID : 49 (0x31)-2
Menu ID : 1 (0x1)
Format : EIA-708
Muxing mode : A/53 / DTVCC Transport
Muxing mode, more info : Muxed in Video #1
Duration : 10mn 53s
Bit rate mode : Constant
Stream size : 0.00 Byte (0%)

General
ID : 1 (0x1)
Complete name : F:UPMixThe Beatles - The Night That Changed America - A Grammy Salute - Paul McCartney and Ringo StarrRingo Starr on Grammy Salute to The Beatles 2014-01-27.ts
Format : MPEG-TS
File size : 1.15 GiB
Duration : 9mn 54s
Overall bit rate mode : Variable
Overall bit rate : 16.7 Mbps

Video
ID : 49 (0x31)
Menu ID : 1 (0x1)
Format : MPEG Video
Format version : Version 2
Format profile : [email protected]
Format settings, BVOP : Yes
Format settings, Matrix : Default
Format settings, GOP : Variable
Codec ID : 2
Duration : 9mn 54s
Bit rate mode : Variable
Bit rate : 15.4 Mbps
Maximum bit rate : 80.0 Mbps
Width : 1 920 pixels
Height : 1 080 pixels
Display aspect ratio : 16:9
Frame rate : 29.970 fps
Color space : YUV
Chroma subsampling : 4:2:0
Bit depth : 8 bits
Scan type : Interlaced
Scan order : Top Field First
Compression mode : Lossy
Bits/(Pixel*Frame) : 0.248
Time code of first frame : 00:00:00;00
Time code source : Group of pictures header
Stream size : 1.07 GiB (93%)
Color primaries : BT.709
Transfer characteristics : BT.709
Matrix coefficients : BT.709

Audio
ID : 52 (0x34)
Menu ID : 1 (0x1)
Format : AC-3
Format/Info : Audio Coding 3
Mode extension : CM (complete main)
Format settings, Endianness : Big
Codec ID : 129
Duration : 9mn 54s
Bit rate mode : Constant
Bit rate : 384 Kbps
Channel(s) : 6 channels
Channel positions : Front: L C R, Side: L R, LFE
Sampling rate : 48.0 KHz
Bit depth : 16 bits
Compression mode : Lossy
Delay relative to video : 27ms
Stream size : 27.2 MiB (2%)
Language : English

Text #1
ID : 49 (0x31)-CC1
Menu ID : 1 (0x1)
Format : EIA-608
Muxing mode : A/53 / DTVCC Transport
Muxing mode, more info : Muxed in Video #1
Duration : 9mn 54s
Bit rate mode : Constant
Stream size : 0.00 Byte (0%)

Text #2
ID : 49 (0x31)-1
Menu ID : 1 (0x1)
Format : EIA-708
Muxing mode : A/53 / DTVCC Transport
Muxing mode, more info : Muxed in Video #1
Duration : 9mn 54s
Bit rate mode : Constant
Stream size : 0.00 Byte (0%)

Text #3
ID : 49 (0x31)-2
Menu ID : 1 (0x1)
Format : EIA-708
Muxing mode : A/53 / DTVCC Transport
Muxing mode, more info : Muxed in Video #1
Duration : 9mn 54s
Bit rate mode : Constant
Stream size : 0.00 Byte (0%)

http://i57.fastpic.ru/big/2014/0212/17/a00f9bce3659b598fa0942b5d896ee17.jpg
http://i57.fastpic.ru/big/2014/0212/a0/a32e1a1a779e35bbd72075079e6c8ca0.jpg
http://i33.fastpic.ru/big/2014/0212/8d/364563971a12c7aa388ccf0a229a618d.jpg
http://i33.fastpic.ru/big/2014/0212/1f/36e24de75585a9764c053065ec3a6a1f.jpg
http://i59.fastpic.ru/big/2014/0212/59/61949126088ea313362ccd82f765a559.jpg
http://i33.fastpic.ru/big/2014/0212/25/150d514a10a1fcb9a8e50d0234e10d25.jpg


SecureUpload:
avao2.The.Night.That.Changed.America.Grammy.Salute.to.the.Beatles.2014.HDTV.1080i.part1.rar
avao2.The.Night.That.Changed.America.Grammy.Salute.to.the.Beatles.2014.HDTV.1080i.part2.rar
avao2.The.Night.That.Changed.America.Grammy.Salute.to.the.Beatles.2014.HDTV.1080i.part3.rar
avao2.The.Night.That.Changed.America.Grammy.Salute.to.the.Beatles.2014.HDTV.1080i.part4.rar
avao2.The.Night.That.Changed.America.Grammy.Salute.to.the.Beatles.2014.HDTV.1080i.part5.rar

RyuShare:
avao2.The.Night.That.Changed.America.Grammy.Salute.to.the.Beatles.2014.HDTV.1080i.part1.rar
avao2.The.Night.That.Changed.America.Grammy.Salute.to.the.Beatles.2014.HDTV.1080i.part2.rar
avao2.The.Night.That.Changed.America.Grammy.Salute.to.the.Beatles.2014.HDTV.1080i.part3.rar
avao2.The.Night.That.Changed.America.Grammy.Salute.to.the.Beatles.2014.HDTV.1080i.part4.rar
avao2.The.Night.That.Changed.America.Grammy.Salute.to.the.Beatles.2014.HDTV.1080i.part5.rar

Uploaded:
avao2.The.Night.That.Changed.America.Grammy.Salute.to.the.Beatles.2014.HDTV.1080i.part1.rar
avao2.The.Night.That.Changed.America.Grammy.Salute.to.the.Beatles.2014.HDTV.1080i.part2.rar
avao2.The.Night.That.Changed.America.Grammy.Salute.to.the.Beatles.2014.HDTV.1080i.part3.rar
avao2.The.Night.That.Changed.America.Grammy.Salute.to.the.Beatles.2014.HDTV.1080i.part4.rar
avao2.The.Night.That.Changed.America.Grammy.Salute.to.the.Beatles.2014.HDTV.1080i.part5.rar

RapidGator:
avao2.The.Night.That.Changed.America.Grammy.Salute.to.the.Beatles.2014.HDTV.1080i.part1.rar.html
avao2.The.Night.That.Changed.America.Grammy.Salute.to.the.Beatles.2014.HDTV.1080i.part2.rar.html
avao2.The.Night.That.Changed.America.Grammy.Salute.to.the.Beatles.2014.HDTV.1080i.part3.rar.html
avao2.The.Night.That.Changed.America.Grammy.Salute.to.the.Beatles.2014.HDTV.1080i.part4.rar.html
avao2.The.Night.That.Changed.America.Grammy.Salute.to.the.Beatles.2014.HDTV.1080i.part5.rar.html
Direct Download

Tags: Beatles, Salute, Changed, America, Grammy
Eset Smart Security Username Password | Fix Sniper Ghost Warrior Siberian Strike | Skye Model Imgchili Rk Rsc Croqif | Siongs About Sisters | Normal Version Terms Of Service Public Notes Rk Rsbh Rk Rse | Etabs shared Rk Rsk | Sean Coady Myvidster | Ejay Techno Reloaded Cracke | Call Of Duty Modern War Fare | Gears Of War Putlocker | Vol Home Decor | Step Mother gp Download | Voyeur Sex Videos Real Life Cam Adriana And Danie Bathrooml | Modern Httyd Fanfic | Team Building Proven Stratergies For Improving Team Performance | Child Rape Tube | Rslogix Latest Version Master Disk | Mr Pinku Guide | Erza Fuck Jellal Hentai | Tamil Sex Story Tamil Wep Site

The Night That Changed America Grammy Salute to the Beatles 2014 [HDTV 1080i] Download via Hotfile Rapidshare Fileserve Megaupload & FileSonic, The Night That Changed America Grammy Salute to the Beatles 2014 [HDTV 1080i] free torrent downloads included crack, serial, keygen.


Add comments

Your Name:
Your E-Mail:

Security Code:
Include security image CAPCHA.
update code
Insert Code: