Richard Wagner The Wagner Gala Christian Thielemann Jonas Kaufmann Staatskapelle Dresden 2014 [Full Blu-Ray]

Download Now

http://i58.fastpic.ru/big/2014/0303/7f/105c0a0863358e5d1c9ef25f0f06977f.jpg
Richard Wagner - The Wagner Gala - Christian Thielemann, Jonas Kaufmann, Staatskapelle Dresden (2014)
Full BluRay 1:1 | BDMV | 1080i MPEG-4 AVC @ 16934 Kbps; 29.970 fps | 01:48:03 | 22.5 GB
Audio1: German DTS-HD MA 5.1 / 48 kHz / 3923 kbps / 24-bit (DTS Core: 5.1 / 48 kHz / 1509 kbps / 24-bit)
Audio2: German LPCM 2.0 / 48 kHz / 2304 kbps / 24-bit
Subtitles: German, English, French, Spanish, Korean, Chinese | Genre: Classical

In memory of the great Richard Wagner and mindful of their own Wagner tradition, the Staatskapelle Dresden staged this glittering gala concert in the Semperoper on the eve of Richard Wagner's bicentenary. They were directed by their principal conductor Christian Thielemann, indisputably one of the great Wagner conductors of our time, and he was joined by the hottest young heroic tenor of recent years, Jonas Kaufmann.

The programme features the overtures to the Wagner operas written and premiered in Dresden - 1842 Rienzi, 1843 The Flying Dutchman and 1845 Tannhäuser - as well as great tenor scenes from Rienzi, Tannhäuser and Lohengrin. "Star tenor Jonas Kaufmann was celebrated with bravos and tumultuous applause - as were the musicians and Thielemann."

Richard Wagner (1813-1883)
- Overture to Der fliegende Holländer
- A Faust Overture in D minor (1855 version)
- Rienzi's prayer "Allmächt'ger Vater" - Overture to Rienzi
- Prelude to Lohengrin
- Lohengrin's Grail Narration "In fernem Land" (original version)
- Tannhäuser's Rome Narration "Inbrunst im Herzen" - Overture to Tannhäuser
- Entry of the Guests from Tannhäuser

Hans Werner Henze (1926-2012)
- Fraternité. Air pour l'orchestre (1999)

* Recorded live at the Semperoper, Dresden, 21 May 2013

Production: C Major
Runtime: 01:48:03
Quality: Blu-ray
Container: BDMV
Video codec: AVC
Audio codec: DTS, PCM
Video: MPEG-4 AVC 16934 kbps 1920*1080i / 29.970 fps / 16:9 / High Profile 4.1
Audio#1: German DTS-HD MA 5.1 / 48 kHz / 3923 kbps / 24-bit (DTS Core: 5.1 / 48 kHz / 1509 kbps / 24-bit)
Audio#2: German LPCM 2.0 / 48 kHz / 2304 kbps / 24-bit
Subtitles: German, English, French, Spanish, Korean, Chinese



Disc Title: WAGNER
Disc Size: 21,350,463,538 bytes
Protection: AACS
BD-Java: No
BDInfo: 0.5.8

PLAYLIST REPORT:

Name: 00006.MPLS
Length: 1:48:03.743 (h:m:s.ms)
Size: 19,902,326,784 bytes
Total Bitrate: 24.56 Mbps

VIDEO:

Codec Bitrate Description
----- ------- -----------
MPEG-4 AVC Video 16934 kbps 1080i / 29.970 fps / 16:9 / High Profile 4.1

AUDIO:

Codec Language Bitrate Description
----- -------- ------- -----------
LPCM Audio German 2304 kbps 2.0 / 48 kHz / 2304 kbps / 24-bit
DTS-HD Master Audio German 3923 kbps 5.1 / 48 kHz / 3923 kbps / 24-bit (DTS Core: 5.1 / 48 kHz / 1509 kbps / 24-bit)

SUBTITLES:

Codec Language Bitrate Description
----- -------- ------- -----------
Presentation Graphics German 4.371 kbps
Presentation Graphics English 4.233 kbps
Presentation Graphics French 4.250 kbps
Presentation Graphics Spanish 4.803 kbps
Presentation Graphics Chinese 3.538 kbps
Presentation Graphics Korean 3.638 kbps

FILES:

Name Time In Length Size Total Bitrate
---- ------- ------ ---- -------------
00007.M2TS 0:00:00.000 1:47:38.652 19,899,426,816 24,648
00005.M2TS 1:47:38.652 0:00:14.047 1,112,064 633
00008.M2TS 1:47:52.699 0:00:10.043 1,757,184 1,400
00010.M2TS 1:48:02.742 0:00:01.000 30,720 246
Screen
http://i59.fastpic.ru/big/2014/0303/d4/ba173aefdb5db8c342777b26c54e4fd4.jpg
http://i33.fastpic.ru/big/2014/0303/82/882675a739719df1c415677fb3a19982.jpg


Direct Download

Tags: Wagner, Dresden, Staatskapelle, Kaufmann, Christian
Sexstorihindi B Ook In | Change Windows Enterprise To Evaluation | Kuro Inu Episode English Subbed | Iron Man p R X Ac Jyk Subtitles English | Normal Version Public Notes Terms Of Service Rk Rskcyg Rk Rst U I | Motogp Crack Only Zip | Ugly Preteen Girl Models | Mere Aagosh Movie | Girls Diving Movies | Lomps Court Case | Remylacroi X A Lexibelle | Avizo Fire Video | Professor Messe R Comptia A Plus Study Guide V | Bio Shock Intament | Sexgangster Gaming | Mainstream Movies With Man On Man Rape | Central Ost Meta | What All Comes In The Ceh V Tools Dvd | Brazzers Free Movies Download | Mac Os X Mavericks Amd Vmware

Richard Wagner The Wagner Gala Christian Thielemann Jonas Kaufmann Staatskapelle Dresden 2014 [Full Blu-Ray] Download via Hotfile Rapidshare Fileserve Megaupload & FileSonic, Richard Wagner The Wagner Gala Christian Thielemann Jonas Kaufmann Staatskapelle Dresden 2014 [Full Blu-Ray] free torrent downloads included crack, serial, keygen.


Add comments

Your Name:
Your E-Mail:

Security Code:
Include security image CAPCHA.
update code
Insert Code: