Monsters Of Metal Vol.9 2014 [Full Blu-Ray]

Download Now

http://i33.fastpic.ru/big/2014/0302/cb/723948c3fa683eaf80e3d488b135a1cb.jpg
Monsters Of Metal Vol.9 (2014)
Full BluRay 1:1 | BDMV | 1080p MPEG-4 AVC @ 30 Mbps; 24.000 fps | 03:34:47 | 41.5 GB
Audio: English LPCM 2.0 / 48.0 KHz / 1536 Kbps / 16 bits
Genre: Black Metal, Death Metal, Gothic, Heavy/True/Power/Speed Metal, Symphonic Metal, Thrash Metal

Monsters Of Metal Vol 9 is the latest installment in Nuclear Blast's regular visual round-up of the cream of the current Metal crop on DVD and Blu-Ray discs in a lavish Digibook package.Bulging with 45 promo videos Monsters Of Metal Vol 9 covers Nuclear Blast s increasingly varied roster, with a few choice cuts from other frontline Metal labels.

All strands of metal stand side-by-side old-school (Accept, Doro), symphonic (Nightwish, Epica), thrash (Testament, Death Angel) & death (Suffocation, Nile. Also look out for NB s new breed in the form of Anti-Mortem, The Vintage Caravan & Scorpion Child. With a running time of nearly 2 hours, this is a truly monstrous package.

Setlist:
01. Accept - Teutonic Terror 05:32
02. Amorphis - Hopeless Days 05:14
03. Avantasia - Sleepwalking 03:46
04. Blackstar Riders - Hey Judas 04:28
05. Doro - Raise Your Fist In The Air 03:28
06. Epica - Storm The Sorrow 05:12
07. Gotthard - Starlight 04:15
08. Korpiklaani - Rauta 03:14
09. Nightwish - Storytime (live) 05:34
10. Powerwolf - Amen & Attack 04:38
11. Rage - 21 05:08
12. Sabaton - Ghost Division (live) 04:13
13. Sonata Arctica - I Have A Right 03:52
14. Threshold - Staring At The Sun 04:27
15. Anti-Mortem - Stagnant Water 05:10
16. Asking Alexandria - Closure 04:07
17. Children Of Bodom - Transference 04:36
18. Eluveitie - Havoc 04:08
19. Hatebreed - Honor Never Dies 03:44
20. Heaven Shall Burn - Hunters Will Be Hunted 06:01
21. Hypocrisy - End Of Disclosure 05:06
22. In Flames - Where The Dead Ships Dwell 03:25
23. Kataklysm - Elevate 03:56
24. Meshuggah - Break Those Bones Whose Sinews Gave It Motion 06:58
25. Moonspell - Lickantrope 03:54
26. Nile - Enduring The Eternal Molestation Of Flame 04:28
27. Soilwork - Spectrum Of Eternity 04:03
28. Suffocation - As Grace Descends 03:35
29. Suicide Silence - You Only Live Once 03:20
30. Thy Art Is Murder - Reign Of Darkness 03:57
31. Death Angel - Truce 03:36
32. Destruction - Carnivore 04:59
33. Devildriver - The Appetite 05:25
34. Kreator - Phantom Antichrist 04:57
35. Legion Of The Damned - Mountain Wolves Under A Crescent 04:26
36. Lost Society - KILL (Those Who Oppose Me) 03:57
37. Overkill - Electric Rattlesnake 06:14
38. Tankard - A Girl Called Cerveza 04:16
39. Testament - Native Blood 05:50
40. Free Fall - World Domination 04:45
41. Graveyard - Endless Night 02:47
42. Kadavar - Come Back Life 05:35
43. Orchid - Capricorn 04:48
44. Scorpion Child - Polygon Of Eyes 04:31
45. The Vintage Caravan - Expand Your Mind 08:40

Production: Nuclear Blast
Runtime: 03:34:47
Quality: Blu-ray
Container: BDMV
Video codec: AVC
Audio codec: PCM
Video: MPEG4 AVC 30 Mbps 1920*1080p / 16:9 / 24.000 fps / [email protected]
Audio: English LPCM 2.0 / 48.0 KHz / 1536 Kbps / 16 bits

http://i57.fastpic.ru/big/2014/0302/97/05311af3d1dac4e2226183cd4f9d2297.jpg
BDInfoGeneral
ID : 0 (0x0)
Complete name : E:Blu-RayMONSTERS_OF_METAL_9MONSTERS_OF_METAL_9BDMVSTREAM0003.m2ts
Format : BDAV
Format/Info : Blu-ray Video
File size : 1.09 GiB
Duration : 5mn 45s
Overall bit rate mode : Variable
Overall bit rate : 27.1 Mbps
Maximum Overall bit rate : 48.0 Mbps

Video
ID : 4113 (0x1011)
Menu ID : 1 (0x1)
Format : AVC
Format/Info : Advanced Video Codec
Format profile : [email protected]
Format settings, CABAC : Yes
Format settings, ReFrames : 3 frames
Codec ID : 27
Duration : 5mn 45s
Bit rate mode : Variable
Bit rate : 24.5 Mbps
Maximum bit rate : 32.1 Mbps
Width : 1 920 pixels
Height : 1 080 pixels
Display aspect ratio : 16:9
Frame rate : 24.000 fps
Standard : NTSC
Color space : YUV
Chroma subsampling : 4:2:0
Bit depth : 8 bits
Scan type : Progressive
Bits/(Pixel*Frame) : 0.492
Stream size : 1 007 MiB (90%)
Color primaries : BT.709
Transfer characteristics : BT.709
Matrix coefficients : BT.709

Audio
ID : 4352 (0x1100)
Menu ID : 1 (0x1)
Format : PCM
Format settings, Endianness : Big
Format settings, Sign : Signed
Muxing mode : Blu-ray
Codec ID : 128
Duration : 5mn 45s
Bit rate mode : Constant
Bit rate : 1 536 Kbps
Channel(s) : 2 channels
Channel positions : Front: L R
Sampling rate : 48.0 KHz
Bit depth : 16 bits
Stream size : 63.2 MiB (6%)
Screen
http://i33.fastpic.ru/big/2014/0302/5b/19491a16d4e621f8e4bb77b08e01965b.jpg
http://i33.fastpic.ru/big/2014/0302/33/9f67415eb52a49da80c2cc8e8b2d3833.jpg
http://i59.fastpic.ru/big/2014/0302/d9/cba5de4e4c0ff38402bf0294ed121cd9.jpg


Direct Download

Tags: Monsters
Reallifecams Logins And Passwords | Farming Simulator Crack Only | Wurth Wow Torrent | Safari Crashes Before Opening Unrarx | Toontrack Midi Expansion Torrent | Free Download Game Pc Total Over Dose | Mlika Serawtsex Videos | New Perversion Pedo Video Torrent | Free Video Forced Fuck In Train For Mobile gp | Cupcake Mr Bigs | Spiderman X White Tiger Hentai | How To Go From Mavericks Back To Snow Leopard | Bmw E Navigation Business Dvd Eastern Europe Download | Kasumi Rebirth V Unrated | Platinum Hit Workstation Mac | Free Risen Wordpress Church Themes | Porn Elsa Hans Sex | East Smart Security Free | Password Pes Loader

Monsters Of Metal Vol.9 2014 [Full Blu-Ray] Download via Hotfile Rapidshare Fileserve Megaupload & FileSonic, Monsters Of Metal Vol.9 2014 [Full Blu-Ray] free torrent downloads included crack, serial, keygen.


Add comments

Your Name:
Your E-Mail:

Security Code:
Include security image CAPCHA.
update code
Insert Code: