The Wigmore Hall Recital Pires Meneses 2013

Download Now


http://i57.fastpic.ru/big/2014/0315/5f/70134405d9f18243e5560566337ab05f.jpg

The Wigmore Hall Recital - Pires, Meneses (2013)
EAC Rip | Flac (Image + cue + log) | 1 CD | Full Scans | 319 MB
Genre: Classical | Label: Deutsche Grammophon | Catalog Number: 001893002

"Over four decades since securing worldwide recognition as one of the finest musicians of her generation, Maria João Pires continues to transfix audiences with the spotless integrity, eloquence and vitality of her art. This recital, recorded live in the splendid Wigmore Hall acoustics, is clearly a red-letter event for chamber music connoisseurs. Pires is partnered by Antonio Meneses, cellist with the Beaux Arts Trio and artist of great wisdom and imagination."


"Over four decades since securing worldwide recognition as one of the finest musicians of her generation, Maria João Pires continues to transfix audiences with the spotless integrity, eloquence and vitality of her art. This recital, recorded live in the splendid Wigmore Hall acoustics, is clearly a red-letter event for chamber music connoisseurs. Pires is partnered by Antonio Meneses, cellist with the Beaux Arts Trio and artist of great wisdom and imagination.

Maria João Pires is one of the reigning pianists of our times, with numerous recordings spanning more than two decades on Deutsche Grammophon. One of the label's flagship artists, she carefully handpicks her concert appearances and recordings projects, making this release a document of extraordinary value.

The album features a collection of some of the most intimately beautiful pieces, including the Songs without Words by Mendelssohn, the Intermezzi op. 117 and Cello Sonata op. 38 by Brahms, and the eternal "Arpeggione" Sonata by Schubert.

Pires's abiding concern for poetic shading draws the listener towards the spiritual essence of the works she performs. An exceptional live encounter between two legendary musicians at the height of their powers, here documented for the first time on disc.

Composer: Franz Schubert, Johannes Brahms, Felix Mendelssohn, Johann Sebastian Bach
Performer: Maria-Joao Pires, Antonio Meneses "


"Reviews: "This was without doubt a spellbinding concert. Brazilian Antonio Meneses is a one-off, with a technique of such refinement that he seems to conjure before us an instrument free of gruffness, buzzing or angular imbalance...Both artists are unfailingly precise and elegant, breathing rather than forcing life into sound."

"such technical perfection could hardly have been created with day upon day and take upon take in the studio, at the same time as retaining and transferring the intimacy of a live performance on disc...the reciprocity between them feels intuitive at the same time as being grounded in familiarity.""


Tracklisting:

1. Sonata for Arpeggione in A minor, D 821 by Franz Schubert
Performer: Maria-Joao Pires (Piano), Antonio Meneses (Cello)
Period: Romantic
Written: 1824; Vienna, Austria

2. Intermezzi (3) for Piano, Op. 117 by Johannes Brahms
Performer: Maria-Joao Pires (Piano), Antonio Meneses (Cello)
Period: Romantic
Written: 1892; Austria

3. Song without words for Cello and Piano in D major, Op. 109 by Felix Mendelssohn
Performer: Maria-Joao Pires (Piano), Antonio Meneses (Cello)
Written: 1845

4. Sonata for Cello and Piano no 1 in E minor, Op. 38 by Johannes Brahms
Performer: Maria-Joao Pires (Piano), Antonio Meneses (Cello)
Period: Romantic
Written: 1862-1865; Austria

5. Pastorale in F major, BWV 590: Excerpt(s) by Johann Sebastian Bach
Performer: Maria-Joao Pires (Piano), Antonio Meneses (Cello)
Notes: Arranger: Maria Roemaet-Rosanoff


http://i57.fastpic.ru/big/2014/0315/69/f4d2ff10fa5d5392da145406cb7fb669.jpg

EAC LOG
Exact Audio Copy V1.0 beta 1 from 15. November 2010

EAC extraction logfile from 17. May 2013, 21:38

Antonio Meneses & Maria Joao Pires / The Wigmore Hall Recital

Used drive : Optiarc DVD RW AD-7203A Adapter: 4 ID: 1

Read mode : Secure
Utilize accurate stream : Yes
Defeat audio cache : Yes
Make use of C2 pointers : No

Read offset correction : 48
Overread into Lead-In and Lead-Out : No
Fill up missing offset samples with silence : Yes
Delete leading and trailing silent blocks : No
Null samples used in CRC calculations : Yes
Used interface : Native Win32 interface for Win NT & 2000

Used output format : User Defined Encoder
Selected bitrate : 128 kBit/s
Quality : High
Add ID3 tag : No
Command line compressor : C:Program FilesFLACflac.exe
Additional command line options : -T "COMMENT=Ripped by GFox" -8 -V %s

TOC of the extracted CD

Track | Start | Length | Start sector | End sector
---------------------------------------------------------
1 | 0:00.00 | 11:35.63 | 0 | 52187
2 | 11:35.63 | 4:29.04 | 52188 | 72366
3 | 16:04.67 | 8:58.09 | 72367 | 112725
4 | 25:03.01 | 5:06.17 | 112726 | 135692
5 | 30:09.18 | 4:55.69 | 135693 | 157886
6 | 35:05.12 | 5:50.35 | 157887 | 184171
7 | 40:55.47 | 4:18.30 | 184172 | 203551
8 | 45:14.02 | 14:37.60 | 203552 | 269386
9 | 59:51.62 | 5:37.70 | 269387 | 294731
10 | 65:29.57 | 7:08.17 | 294732 | 326848
11 | 72:37.74 | 3:56.15 | 326849 | 344563

Range status and errors

Selected range

Filename D:EACAntonio Meneses & Maria Joao Pires - The Wigmore Hall Recital.wav

Peak level 96.9 %
Extraction speed 0.1 X
Range quality 100.0 %
Test CRC FE1AEF31
Copy CRC FE1AEF31
Copy OK

No errors occurred

AccurateRip summary

Track 1 accurately ripped (confidence 1) [26A24844]
Track 2 accurately ripped (confidence 1) [6832D172]
Track 3 accurately ripped (confidence 1) [121B92C6]
Track 4 accurately ripped (confidence 1) [30B9FCE1]
Track 5 accurately ripped (confidence 1) [8EF28C58]
Track 6 accurately ripped (confidence 1) [B5F10F27]
Track 7 accurately ripped (confidence 1) [CC3DBD7D]
Track 8 accurately ripped (confidence 1) [A60DE255]
Track 9 accurately ripped (confidence 1) [C742079A]
Track 10 accurately ripped (confidence 1) [DD8491AC]
Track 11 accurately ripped (confidence 1) [B0CC36F7]

All tracks accurately ripped

End of status report

==== Log checksum 9DAD3CC0680BF7DF66F16183543B6E4316A08F089FB4B564D7352E698E1F406D ====

Thanks to the original releaser



| |



Direct Download

Tags: Meneses, Recital, Wigmore
Xnxx The Frouzan Disney Animy Rk Rsl | Czech Streets | Ilona Irma A And Anna Fuck | Irma Masturbate On Reallifecam | Parche Para Civilcad | Cuvava Full Izle | Hyperbolic Function Applications | Real Cam Leora Maturbating | Public Notes Having Trouble While Logging In Rk Rszc Rk Rs Eq | Install Reaver In Back Track R Rk | Normal Version Terms Of Service Public Notes Erkundungszweck En Rk Rsab Nbqkygibsmdegn | Ps Porndownloads | Business English Pod Video Video Guides Rar Pass | Amtlib Dll After Effects Cc | Fuck For Forest | The Untraveled Path Torrent | Marion Mitterhammer Verbotenes Verlangen Video Rk Rs | Pee Mak Video Download | Loginquo T Public Notes Normal Version Rsadalfwcyyku Rk Rsplv Mzxvi | Nue Massage On Vimeo Rk Rsva Vbegqkhfcjeqarv

The Wigmore Hall Recital Pires Meneses 2013 Download via Hotfile Rapidshare Fileserve Megaupload & FileSonic, The Wigmore Hall Recital Pires Meneses 2013 free torrent downloads included crack, serial, keygen.


Add comments

Your Name:
Your E-Mail:

Security Code:
Include security image CAPCHA.
update code
Insert Code: