Embryo Ibn Battuta 1994

Download Now

Embryo - Ibn Battuta (1994)

Embryo - Ibn Battuta (1994)

EAC Rip | FLAC (tracks+.cue+log) - 444 MB | MP3 CBR 320 kbps (LAME 3.93) - 171 MB | Covers - 27 MB

Genre: Progressive/Krautrock/Jazz Rock | RAR 3% Rec. | Label: Schneeball (INDIGO 1052-2)

“One of the most original and innovative Krautrock bands, Embryo fused traditional ethnic music with their own jazzy space rock style. Over their 30-year existence, during which Christian Burchard has been the only consistent member, the group has traveled the world, playing with hundreds of different musicians and releasing over 20 records.”



Tracklist:

01. Code 7

02. Ibn Battuta

03. Komet 41

04. 1/4 Tone Jazz, part 1

05. Man Bekhod wa to Bekhod

06. Prelude (1:38) - Rast

07. Beat From Bagdad

08. Simai Ka

09. 1/4 Tone Jazz, part 2

10. Kletta

11. El Qalb Yeshak Kulli Camil

12. Andalusian Beat

13. Zeinab

Total time: 01:12:48

EAC logExact Audio Copy V0.99 prebeta 3 from 28. July 2007

EAC extraction logfile from 28. December 2008, 20:41

Embryo / Ibn Battuta

Used drive : PIONEER DVD-RW DVR-112D Adapter: 0 ID: 0

Read mode : Secure

Utilize accurate stream : Yes

Defeat audio cache : Yes

Make use of C2 pointers : No

Read offset correction : 48

Overread into Lead-In and Lead-Out : No

Fill up missing offset samples with silence : Yes

Delete leading and trailing silent blocks : No

Null samples used in CRC calculations : Yes

Used interface : Native Win32 interface for Win NT & 2000

Gap handling : Appended to previous track

Used output format : User Defined Encoder

Selected bitrate : 896 kBit/s

Quality : High

Add ID3 tag : No

Command line compressor : C:Program FilesExact Audio CopyFLACFLAC.EXE

Additional command line options : -V -8 -T "artist=%a" -T "title=%t" -T "album=%g" -T "date=%y" -T "tracknumber=%n" -T "genre=%m" %s

TOC of the extracted CD

Track | Start | Length | Start sector | End sector

---------------------------------------------------------

1 | 0:00.00 | 5:50.67 | 0 | 26316

2 | 5:50.67 | 7:52.51 | 26317 | 61767

3 | 13:43.43 | 10:59.28 | 61768 | 111220

4 | 24:42.71 | 5:14.39 | 111221 | 134809

5 | 29:57.35 | 3:44.07 | 134810 | 151616

6 | 33:41.42 | 6:10.56 | 151617 | 179422

7 | 39:52.23 | 7:11.53 | 179423 | 211800

8 | 47:04.01 | 7:28.16 | 211801 | 245416

9 | 54:32.17 | 1:28.08 | 245417 | 252024

10 | 56:00.25 | 4:49.45 | 252025 | 273744

11 | 60:49.70 | 3:45.74 | 273745 | 290693

12 | 64:35.69 | 3:59.14 | 290694 | 308632

13 | 68:35.08 | 4:13.07 | 308633 | 327614

Track 1

Filename E:Z-POSTEMBRYO - 1994 Ibn Battuta (EAC, log,cue,flac,scans)1 - Code 7.wav

Pre-gap length 0:00:02.00

Peak level 96.5 %

Track quality 100.0 %

Test CRC 729FA717

Copy CRC 729FA717

Copy OK

Track 2

Filename E:Z-POSTEMBRYO - 1994 Ibn Battuta (EAC, log,cue,flac,scans)2 - Ibn Battuta.wav

Peak level 100.0 %

Track quality 100.0 %

Test CRC 5866E88A

Copy CRC 5866E88A

Copy OK

Track 3

Filename E:Z-POSTEMBRYO - 1994 Ibn Battuta (EAC, log,cue,flac,scans)3 - Komet 41.wav

Peak level 100.0 %

Track quality 100.0 %

Test CRC 85744C1A

Copy CRC 85744C1A

Copy OK

Track 4

Filename E:Z-POSTEMBRYO - 1994 Ibn Battuta (EAC, log,cue,flac,scans)4 - 1-4 Tone Jazz, Part 1.wav

Peak level 100.0 %

Track quality 99.9 %

Test CRC 00E16699

Copy CRC 00E16699

Copy OK

Track 5

Filename E:Z-POSTEMBRYO - 1994 Ibn Battuta (EAC, log,cue,flac,scans)5 - Man Bekhod Wa To Bekhod.wav

Peak level 94.5 %

Track quality 100.0 %

Test CRC ED7FB23E

Copy CRC ED7FB23E

Copy OK

Track 6

Filename E:Z-POSTEMBRYO - 1994 Ibn Battuta (EAC, log,cue,flac,scans)6 - Prelude - Rast.wav

Peak level 100.0 %

Track quality 100.0 %

Test CRC 09F886A6

Copy CRC 09F886A6

Copy OK

Track 7

Filename E:Z-POSTEMBRYO - 1994 Ibn Battuta (EAC, log,cue,flac,scans)7 - Beat From Bagdad.wav

Peak level 100.0 %

Track quality 99.9 %

Test CRC A50415EC

Copy CRC A50415EC

Copy OK

Track 8

Filename E:Z-POSTEMBRYO - 1994 Ibn Battuta (EAC, log,cue,flac,scans)8 - Simai Ka.wav

Peak level 100.0 %

Track quality 100.0 %

Test CRC 411D8B23

Copy CRC 411D8B23

Copy OK

Track 9

Filename E:Z-POSTEMBRYO - 1994 Ibn Battuta (EAC, log,cue,flac,scans)9 - 1-4 Tone Jazz, Part 2.wav

Peak level 100.0 %

Track quality 100.0 %

Test CRC 45E3E2DA

Copy CRC 45E3E2DA

Copy OK

Track 10

Filename E:Z-POSTEMBRYO - 1994 Ibn Battuta (EAC, log,cue,flac,scans)10 - Kletta.wav

Peak level 96.5 %

Track quality 100.0 %

Test CRC 0B639C79

Copy CRC 0B639C79

Copy OK

Track 11

Filename E:Z-POSTEMBRYO - 1994 Ibn Battuta (EAC, log,cue,flac,scans)11 - El Qalb Yeshak Kulli Gamil.wav

Peak level 64.3 %

Track quality 100.0 %

Test CRC 58A47CC2

Copy CRC 58A47CC2

Copy OK

Track 12

Filename E:Z-POSTEMBRYO - 1994 Ibn Battuta (EAC, log,cue,flac,scans)12 - Andalusian Beat.wav

Peak level 69.9 %

Track quality 100.0 %

Test CRC FA2D1865

Copy CRC FA2D1865

Copy OK

Track 13

Filename E:Z-POSTEMBRYO - 1994 Ibn Battuta (EAC, log,cue,flac,scans)13 - Zeinab.wav

Peak level 94.1 %

Track quality 100.0 %

Test CRC 1F3548DD

Copy CRC 1F3548DD

Copy OK

No errors occurred

End of status report

Thanks to Poor1

More Embryo's releases from my blog:

Embryo

Buy Premium Account To Download More Files With Fast Speed.

Direct Download

Tags: Battuta, Embryo
Architecture French Torrent | Motion For Iclone | H O M E S E E R shared Rk Rs Mttshkjtrejhzzv | Ilya Efimov Electric Guitar Torrent | Sexy Mod Resident Evil Revelations | Local Homemade Sex | Graphicriver Infographic Free Download | Extreme Construction Truck Apk Android | The Powder Game | Pageant Nudist Contest | Las Vegas Entertainment | Arduino Networking Packt | Bianka Model Art Modeling Studios Torrent | Rapidshare How To Run The Bars Access Consciousness | Jordu Schell Maquette Sculpting Torrent | Skyrim Sex Lab Children | Eurocode Mosley | Englsh Six Vedo | Burger With Mustache Cartoon | Producer Loops Sunny Lax Moder N Trance Vol Wav Rar

Embryo Ibn Battuta 1994 Download via Hotfile Rapidshare Fileserve Megaupload & FileSonic, Embryo Ibn Battuta 1994 free torrent downloads included crack, serial, keygen.


Add comments

Your Name:
Your E-Mail:

Security Code:
Include security image CAPCHA.
update code
Insert Code: