Laura Marling Live From Abbey Road 2011 [HDTV 720p]

Download Now

Laura Marling - Live From Abbey Road 2011
TS, MPEG4 Video 1280x720, 50fps, 11.1Mbps | Dolby AC3, 48kHz, 2ch, 448kbps
Folk Rock | 00:20:54 | ~ 1.87 Gb

"Singer/songwriter Laura Marling was only 16 years old when she emerged on the British indie scene in 2007 thanks to a handful of infectious singles made available on her MySpace profile. Endowed with a husky voice, an acoustic guitar, and a gift for building quirky, hooky folk songs (characteristics that find her compared favorably to artists like Lily Allen, Regina Spektor, and Martha Wainwright), Marling quickly made a name for herself throughout England thanks to a heavy touring schedule and a few high-profile gigs, not the least of which included an appearance at the 2006 City Showcase: Spotlight London and as the opening act for Jamie T. Although she was still without a label one year later, her debut EP, My Manic and I, was slated for independent release in the late fall of 2007. This status didn't last for long, however, because in early 2008, signed to Virgin, Marling issued Alas I Cannot Swim, which also came as part of a multimedia Songbox package. In 2010, Marling released her sophomore album, I Speak Because I Can, which debuted at number three on the U.K. albums chart and was nominated for the Mercury Music Prize. Marling's third studio album, A Creature I Don't Know, arrived on September 9, 2011 and featured prominently on numerous year-end lists. Marling relocated to Los Angeles, California the following year and began work on her fourth long-player, 2013's Once I Was an Eagle.

by Margaret Reges, AMG


01. Intro
02. The Muse
03. I Was Just A Card
04. What He Wrote
05. Don't Ask Me Why
06. Salinas

ID : 1 (0x1)
Complete name : F:UPMixLaura Marling - Live From Abbey Road 2011Laura Marling - Live From Abbey Road 2011.ts
Format : MPEG-TS
File size : 1.78 GiB
Duration : 20mn 54s
Overall bit rate mode : Variable
Overall bit rate : 12.2 Mbps

ID : 6410 (0x190A)
Menu ID : 1 (0x1)
Format : AVC
Format/Info : Advanced Video Codec
Format profile : [email protected]
Format settings, CABAC : Yes
Format settings, ReFrames : 6 frames
Codec ID : 27
Duration : 20mn 53s
Bit rate : 11.1 Mbps
Width : 1 280 pixels
Height : 720 pixels
Display aspect ratio : 16:9
Frame rate : 50.000 fps
Color space : YUV
Chroma subsampling : 4:2:0
Bit depth : 8 bits
Scan type : Progressive
Bits/(Pixel*Frame) : 0.241
Stream size : 1.62 GiB (91%)
Color primaries : BT.709
Transfer characteristics : BT.709
Matrix coefficients : BT.709

ID : 6422 (0x1916)
Menu ID : 1 (0x1)
Format : AC-3
Format/Info : Audio Coding 3
Mode extension : CM (complete main)
Format settings, Endianness : Big
Codec ID : 6
Duration : 20mn 53s
Bit rate mode : Constant
Bit rate : 448 Kbps
Channel(s) : 2 channels
Channel positions : Front: L R
Sampling rate : 48.0 KHz
Bit depth : 16 bits
Compression mode : Lossy
Stream size : 67.0 MiB (4%)
Language : German

All thanks go to the original releaser

Buy Premium From My Links To Get Resumable Support,Max Speed & Support Me

Direct Download

Tags: Marling
Heidy Model August rd | Child Young Porno | Frozen Movie Font | Free Movies Monster In A Nudist Colony | Emotional Contagion The Desire System | Microsoft Office Free Download Windows | Incest Retro Italian | Can Not Run Eplan Dongle Service On Windows | Build Public Notes Normal Version Login Lion Rsada Rk Rs Viufp | Defraggler Pro Seria | How To Install Etap Software In A Mac Computer | Download Pthc Depfile | Understanding Computers Morley th Edition | Band Lenght Magyarul | Kings Download Seks | st Studio Siberian Mouse Vimeo | Loginquo T Normal Version Public Notes Opening Rk Rssf Ameq | Lightworks Keygen | Hvidsten Gruppen p Torrent Rk R W Znwnpkgqv

Laura Marling Live From Abbey Road 2011 [HDTV 720p] Download via Hotfile Rapidshare Fileserve Megaupload & FileSonic, Laura Marling Live From Abbey Road 2011 [HDTV 720p] free torrent downloads included crack, serial, keygen.

Add comments

Your Name:
Your E-Mail:

Security Code:
Include security image CAPCHA.
update code
Insert Code: