Grieg Piano Concerto In A; Prokofiev Piano Concerto No 3 Lugansky Nagano 2013

Download Now

http://i56.fastpic.ru/big/2014/0425/08/21ecbf0f3b5f133e68ecc0fb30645208.jpg

Grieg: Piano Concerto In A; Prokofiev: Piano Concerto No. 3 - Lugansky, Nagano (2013)
EAC Rip | Flac (Tracks + cue + log) | 1 CD | Full Scans | 235 MB
Genre: Classical | Label: Naive | Catalog Number: 210

"For his third recording on Naïve / Ambroisie, and following an extremely successful Rachmaninov sonatas recording, Nikolai Lugansky pairs with one of the most refined conductors, Kent Nagano (with whom he already recorded several successful discs) and the excellent DSO-Berlin to perform brilliant, breathtaking performances of the virtuoso Grieg and Prokofiev Piano Concertos."


"For his third recording on Naïve / Ambroisie, and following an extremely successful Rachmaninov sonatas recording, Nikolai Lugansky pairs with one of the most refined conductors, Kent Nagano (with whom he already recorded several successful discs) and the excellent DSO-Berlin to perform brilliant, breathtaking performances of the virtuoso Grieg and Prokofiev Piano Concertos.

Nikolai Lugansky records exclusively for the Naïve-Ambroisie label. His most recent recording, featuring Rachmaninov's two Piano Sonatas, was released in Autumn 2012 and won a number of awards including the Echo Klassik, the Diapason d'Or, 慓ramophone Choice', 慍hoc' de Classica and Scherzo 慐xcepcionales'. This followed his disc of solo Liszt works, which led Le Monde to write that "Nikolai Lugansky has entered the inner circle of great Lisztians".

Composer: Edvard Grieg, Sergei Prokofiev
Performer: Nikolai Lugansky
Conductor: Kent Nagano
Orchestra/Ensemble: Berlin Deutsches Symphony Orchestra "


"Reviews: "Lugansky seems much more at home in the Prokofiev than the Grieg and opens the Andante - Allegro with a sense of mystery followed by considerable liveliness...Pleasing support from the Deutsches Symphonie-Orchester Berlin under Kent Nagano comes across as colourful and especially sensitive to the soloist."

"in the Grieg Concerto he is as rhapsodic and affectionate as he is masterly...In the Prokofiev...his performance blazes with conviction, a propulsion and energy finely complemented wth an innate sense of poetry...In a market place where great recordings jostle for attention...Lugansky takes his own special place.""


Tracklisting:

1. Concerto for Piano in A minor, Op. 16 by Edvard Grieg
Performer: Nikolai Lugansky (Piano)
Conductor: Kent Nagano
Orchestra/Ensemble: Berlin Deutsches Symphony Orchestra
Period: Romantic
Written: 1868/1907; Norway

2. Concerto for Piano no 3 in C major, Op. 26 by Sergei Prokofiev
Performer: Nikolai Lugansky (Piano)
Conductor: Kent Nagano
Orchestra/Ensemble: Berlin Deutsches Symphony Orchestra
Period: 20th Century
Written: 1917-1921; USA

http://i55.fastpic.ru/big/2014/0425/4d/e4a7f6abcc46318bab3b09ad0116cb4d.jpg

EAC LOG
Exact Audio Copy V1.0 beta 3 from 29. August 2011

EAC extraction logfile from 14. February 2014, 22:28

N. Lugansky - DSO Berlin - Kent Nagano / Piano Concertos

Used drive : PLEXTOR DVDR PX-891SA Adapter: 0 ID: 2

Read mode : Secure
Utilize accurate stream : Yes
Defeat audio cache : Yes
Make use of C2 pointers : No

Read offset correction : 6
Overread into Lead-In and Lead-Out : No
Fill up missing offset samples with silence : Yes
Delete leading and trailing silent blocks : No
Null samples used in CRC calculations : Yes
Used interface : Native Win32 interface for Win NT & 2000
Gap handling : Appended to previous track

Used output format : User Defined Encoder
Selected bitrate : 768 kBit/s
Quality : High
Add ID3 tag : No
Command line compressor : C:Program Files (x86)Exact Audio CopyFLACFLAC.EXE
Additional command line options : -8 -V -T "ARTIST=%artist%" -T "TITLE=%title%" -T "ALBUM=%albumtitle%" -T "DATE=%year%" -T "TRACKNUMBER=%tracknr%" -T "GENRE=%genre%" -T "PERFORMER=%albuminterpret%" -T "COMPOSER=%composer%" %haslyrics%--tag-from-file=LYRICS="%lyricsfile%"%haslyrics% -T "ALBUMARTIST=%albumartist%" -T "DISCNUMBER=%cdnumber%" -T "TOTALDISCS=%totalcds%" -T "TOTALTRACKS=%numtracks%" -T "COMMENT=%comment%" %source% -o %dest%

TOC of the extracted CD

Track | Start | Length | Start sector | End sector
---------------------------------------------------------
1 | 0:00.00 | 13:47.60 | 0 | 62084
2 | 13:47.60 | 6:29.28 | 62085 | 91287
3 | 20:17.13 | 10:41.49 | 91288 | 139411
4 | 30:58.62 | 9:34.18 | 139412 | 182479
5 | 40:33.05 | 9:12.58 | 182480 | 223937
6 | 49:45.63 | 9:33.48 | 223938 | 266960

Track 1

Filename E:MUSIQUEEXACT AUDIO COPY1 - Piano Concerto in A Minor op.16 - 1. Allegro Molto Moderato.wav

Pre-gap length 0:00:02.00

Peak level 78.0 %
Extraction speed 6.4 X
Track quality 100.0 %
Test CRC E3CD20CB
Copy CRC E3CD20CB
Track not present in AccurateRip database
Copy OK

Track 2

Filename E:MUSIQUEEXACT AUDIO COPY2 - Piano Concerto in A Minor op.16 - 2. Adagio.wav

Peak level 55.1 %
Extraction speed 7.4 X
Track quality 100.0 %
Test CRC 50BF5E4C
Copy CRC 50BF5E4C
Track not present in AccurateRip database
Copy OK

Track 3

Filename E:MUSIQUEEXACT AUDIO COPY3 - Piano Concerto in A Minor op.16 - 3. Allegro Moderato Molto e Marcato.wav

Peak level 96.6 %
Extraction speed 8.6 X
Track quality 100.0 %
Test CRC A7F51994
Copy CRC A7F51994
Track not present in AccurateRip database
Copy OK

Track 4

Filename E:MUSIQUEEXACT AUDIO COPY4 - Piano Concerto No.3 in C Major op.26 - 1. Andante - Allegro.wav

Peak level 96.6 %
Extraction speed 9.4 X
Track quality 100.0 %
Test CRC 5B818582
Copy CRC 5B818582
Track not present in AccurateRip database
Copy OK

Track 5

Filename E:MUSIQUEEXACT AUDIO COPY5 - Piano Concerto No.3 in C Major op.26 - 2. Tema con Variazioni (Andantino).wav

Peak level 96.6 %
Extraction speed 9.3 X
Track quality 99.9 %
Test CRC 48C9921B
Copy CRC 48C9921B
Track not present in AccurateRip database
Copy OK

Track 6

Filename E:MUSIQUEEXACT AUDIO COPY6 - Piano Concerto No.3 in C Major op.26 - 3. Allegro Ma Non Troppo.wav

Peak level 81.7 %
Extraction speed 10.9 X
Track quality 100.0 %
Test CRC 59508858
Copy CRC 59508858
Track not present in AccurateRip database
Copy OK

None of the tracks are present in the AccurateRip database

No errors occurred

End of status report

---- CUETools DB Plugin V2.1.3

[CTDB TOCID: RNnN_yJeDATpFHiBmCQk8E03gH0-] found, Submit result: already submitted
[536bc33d] (1/1) Accurately ripped

==== Log checksum AAB6390B9AA850492D5D7D263A8690F25397E7127B8E11A08062C299081E2321 ====

Thanks to the original releaser



Buy Premium Account To Support Me & Get Maximum Speed & Save Time!


Direct Download

Tags: Concerto, Lugansky, Nagano, Prokofiev
Nicole Munoz Hot | Quantum Fx Pro Forex Course Torrent Trackback Rsadajudwrufcub Yuyxxgr Fsy Rk Rsgyiqe | Registration Code One Piece Pirate Warriors Pc | Dog Garl Sax Full Video Hd Downloads | Banished Surviving My Years In The Westboro Baptist Church Epub | Intitleindex O F Mp Joe Bonamassa The Ballad Of John Henry | Mother Fucking Preteen Son | Cs Encore Won t Load Non Serialized | Microsoft Mappoint Europe Trial Activation | Imgsrc My Little Angels | Tyga Rack City Single Itunes Plus Aac M Torrent Download | Win Pro Ram Patcher | Iknowthatgirl Account November | Metart Films Snow Fun | Daleide Dld Hindi S Ex Stories Of G Roup Sex Of Fam Ily | Does Quicken Work With Windows Rk Rsazhocmbsmkc | Loginquo T Public Notes Normal Version Rsadalfwcyyku Rk Rsuc | Cerebellum Drnajeeb | Quicken Wont Opne

Grieg Piano Concerto In A; Prokofiev Piano Concerto No 3 Lugansky Nagano 2013 Download via Hotfile Rapidshare Fileserve Megaupload & FileSonic, Grieg Piano Concerto In A; Prokofiev Piano Concerto No 3 Lugansky Nagano 2013 free torrent downloads included crack, serial, keygen.


Add comments

Your Name:
Your E-Mail:

Security Code:
Include security image CAPCHA.
update code
Insert Code: