Janelle Monae The Electric Lady 2013

Download Now

http://i68.fastpic.ru/big/2014/0831/c9/5fa80a350a092668cd5c0aaafe90c5c9.jpg

Janelle Monáe - The Electric Lady (2013)
EAC | FLAC | Tracks (Cue&Log) ~ 445 Mb (incl 5%) | Mp3 (CBR320/Stereo) ~ 173 Mb (incl 5%) | Scans included
Genre: Alternative R&B, Psychedelic Soul | Label: Bad Boy/Wondaland | # 7567-86840-5 | Time: 01:07:43

"Prince, Erykah Badu, Esperanza Spalding, Solange, and Miguel contribute to the fourth and fifth Metropolis suites, but it's not as if Janelle Monáe and her Wondaland associates were short on creative energy. Equally as detailed and as entertaining as The ArchAndroid, The Electric Lady likewise is a product of overactive imaginations and detailed concept engineering, and it also plays out like a sci-fi opera-slash-variety program with style and era-hopping galore. Suite four is the album's busier and more ostentatious half, more star-studded and less focused, highlighted by the bopping "Dance Apocalyptic" and the strutting Badu duet "Q.U.E.E.N." Suite five is considerably stronger with a handful of firmly R&B-rooted gems."




Tracklist:

Suite IV:

01. Suite IV Electric Overture (01:37)
02. Givin Em What They Love (Featuring Prince) (04:26)
03. Q.U.E.E.N (Featuring Erykah Badu) (05:10)
04. Electric Lady (Featuring Solange) (05:08)
05. Good Morning Midnight (01:22)
06. Primetime (Featuring Miguel) (04:40)
07. We Were Rock & Roll (04:19)
08. The Chrome Shoppe (01:10)
09. Dance Apocalyptic (03:25)
10. Look Into My Eyes (02:19)

Suite V:

11. Suite V Electric Overture (02:20)
12. It's Code (04:05)
13. Ghetto Woman (04:46)
14. Our Favorite Fugitive (01:23)
15. Victory (04:12)
16. Can't Live Without Your Love (03:54)
17. Sally Ride (04:08)
18. Dorothy Dandridge Eyes (Featuring Esperanza Spalding) (04:15)
19. What An Experience (04:57)


Exact Audio Copy V1.0 beta 3 from 29. August 2011

EAC extraction logfile from 16. May 2014, 0:29

Janelle Monáe / The Electric Lady 2013

Used drive : HL-DT-STDVDRAM GSA-T50L Adapter: 1 ID: 0

Read mode : Secure
Utilize accurate stream : Yes
Defeat audio cache : Yes
Make use of C2 pointers : No

Read offset correction : 667
Overread into Lead-In and Lead-Out : No
Fill up missing offset samples with silence : Yes
Delete leading and trailing silent blocks : No
Null samples used in CRC calculations : Yes
Used interface : Native Win32 interface for Win NT & 2000
Gap handling : Appended to previous track

Used output format : User Defined Encoder
Selected bitrate : 1024 kBit/s
Quality : High
Add ID3 tag : No
Command line compressor : C:Program FilesFLACflac.exe
Additional command line options : -8 -V -T "ARTIST=%artist%" -T "TITLE=%title%" -T "ALBUM=%albumtitle%" -T "DATE=%year%" -T "TRACKNUMBER=%tracknr%" -T "GENRE=%genre%" -T "PERFORMER=%albuminterpret%" -T "COMPOSER=%composer%" %haslyrics%--tag-from-file=LYRICS="%lyricsfile%"%haslyrics% -T "ALBUMARTIST=%albumartist%" -T "DISCNUMBER=%cdnumber%" -T "TOTALDISCS=%totalcds%" -T "TOTALTRACKS=%numtracks%" -T "COMMENT=%comment%" %source% -o %dest%

TOC of the extracted CD Track | Start | Length | Start sector | End sector
---
1 | 0:00.00 | 1:37.03 | 0 | 7277
2 | 1:37.03 | 4:26.03 | 7278 | 27230
3 | 6:03.06 | 5:10.36 | 27231 | 50516
4 | 11:13.42 | 5:08.67 | 50517 | 73683
5 | 16:22.34 | 1:22.41 | 73684 | 79874
6 | 17:45.00 | 4:40.06 | 79875 | 100880
7 | 22:25.06 | 4:19.35 | 100881 | 120340
8 | 26:44.41 | 1:10.30 | 120341 | 125620
9 | 27:54.71 | 3:25.15 | 125621 | 141010
10 | 31:20.11 | 2:18.70 | 141011 | 151430
11 | 33:39.06 | 2:20.08 | 151431 | 161938
12 | 35:59.14 | 4:05.30 | 161939 | 180343
13 | 40:04.44 | 4:46.50 | 180344 | 201843
14 | 44:51.19 | 1:23.26 | 201844 | 208094
15 | 46:14.45 | 4:12.38 | 208095 | 227032
16 | 50:27.08 | 3:54.36 | 227033 | 244618
17 | 54:21.44 | 4:08.16 | 244619 | 263234
18 | 58:29.60 | 4:15.59 | 263235 | 282418
19 | 62:45.44 | 4:57.02 | 282419 | 304695

Track 1 Filename C:FLAC1 Suite IV Electric Overture.wav Pre-gap length 0:00:02.00 Peak level 96.6 %
Extraction speed 2.0 X
Track quality 100.0 %
Test CRC 2AAAC43B
Copy CRC 2AAAC43B
Track not present in AccurateRip database
Copy OK

Track 2 Filename C:FLAC2 Givin Em What They Love (Janelle Monáe Featuring Prince).wav Peak level 96.7 %
Extraction speed 2.6 X
Track quality 100.0 %
Test CRC 12CDC305
Copy CRC 12CDC305
Track not present in AccurateRip database
Copy OK

Track 3 Filename C:FLAC3 Q.U.E.E.N (Janelle Monáe Featuring Erykah Badu).wav Peak level 99.4 %
Extraction speed 2.9 X
Track quality 100.0 %
Test CRC D9D32B43
Copy CRC D9D32B43
Track not present in AccurateRip database
Copy OK

Track 4 Filename C:FLAC4 Electric Lady (Janelle Monáe Featuring Solange).wav Peak level 100.0 %
Extraction speed 3.1 X
Track quality 100.0 %
Test CRC C764EA6A
Copy CRC C764EA6A
Track not present in AccurateRip database
Copy OK

Track 5 Filename C:FLAC5 Good Morning Midnight.wav Peak level 76.7 %
Extraction speed 2.4 X
Track quality 100.0 %
Test CRC 03A9B8D7
Copy CRC 03A9B8D7
Track not present in AccurateRip database
Copy OK

Track 6 Filename C:FLAC6 Primetime (Janelle Monáe Featuring Miguel).wav Peak level 96.5 %
Extraction speed 3.3 X
Track quality 100.0 %
Test CRC 3EB8A484
Copy CRC 3EB8A484
Track not present in AccurateRip database
Copy OK

Track 7 Filename C:FLAC7 We Were Rock & Roll.wav Peak level 100.0 %
Extraction speed 3.5 X
Track quality 100.0 %
Test CRC 8CFBE5B3
Copy CRC 8CFBE5B3
Track not present in AccurateRip database
Copy OK

Track 8 Filename C:FLAC8 The Chrome Shoppe.wav Peak level 60.9 %
Extraction speed 2.0 X
Track quality 99.8 %
Test CRC B8FFFF96
Copy CRC B8FFFF96
Track not present in AccurateRip database
Copy OK

Track 9 Filename C:FLAC9 Dance Apocalyptic.wav Peak level 96.6 %
Extraction speed 3.1 X
Track quality 99.9 %
Test CRC 4CF8C7EC
Copy CRC 4CF8C7EC
Track not present in AccurateRip database
Copy OK

Track 10 Filename C:FLAC10 Look Into My Eyes.wav Peak level 100.0 %
Extraction speed 3.5 X
Track quality 100.0 %
Test CRC BBCB703A
Copy CRC BBCB703A
Track not present in AccurateRip database
Copy OK

Track 11 Filename C:FLAC11 Suite V Electric Overture.wav Peak level 96.6 %
Extraction speed 2.8 X
Track quality 99.9 %
Test CRC F62297D4
Copy CRC F62297D4
Track not present in AccurateRip database
Copy OK

Track 12 Filename C:FLAC12 It's Code.wav Peak level 76.7 %
Extraction speed 4.0 X
Track quality 100.0 %
Test CRC FC62E9AF
Copy CRC FC62E9AF
Track not present in AccurateRip database
Copy OK

Track 13 Filename C:FLAC13 Ghetto Woman.wav Peak level 96.6 %
Extraction speed 4.2 X
Track quality 100.0 %
Test CRC 7330B963
Copy CRC 7330B963
Track not present in AccurateRip database
Copy OK

Track 14 Filename C:FLAC14 Our Favorite Fugitive.wav Peak level 76.7 %
Extraction speed 2.5 X
Track quality 99.8 %
Test CRC 1DF5D1BA
Copy CRC 1DF5D1BA
Track not present in AccurateRip database
Copy OK

Track 15 Filename C:FLAC15 Victory.wav Peak level 96.6 %
Extraction speed 4.3 X
Track quality 100.0 %
Test CRC 61D17686
Copy CRC 61D17686
Track not present in AccurateRip database
Copy OK

Track 16 Filename C:FLAC16 Can't Live Without Your Love.wav Peak level 96.6 %
Extraction speed 4.4 X
Track quality 100.0 %
Test CRC DA216613
Copy CRC DA216613
Track not present in AccurateRip database
Copy OK

Track 17 Filename C:FLAC17 Sally Ride.wav Peak level 96.6 %
Extraction speed 4.5 X
Track quality 100.0 %
Test CRC 9AC893C1
Copy CRC 9AC893C1
Track not present in AccurateRip database
Copy OK

Track 18 Filename C:FLAC18 Dorothy Dandridge Eyes (Janelle Monáe Featuring Esperanza Spalding).wav Peak level 96.6 %
Extraction speed 4.7 X
Track quality 100.0 %
Test CRC 712E47B0
Copy CRC 712E47B0
Track not present in AccurateRip database
Copy OK

Track 19 Filename C:FLAC19 What An Experience.wav Peak level 96.6 %
Extraction speed 4.9 X
Track quality 100.0 %
Test CRC D0E3C9E3
Copy CRC D0E3C9E3
Track not present in AccurateRip database
Copy OK

None of the tracks are present in the AccurateRip database

No errors occurred

End of status report

==== Log checksum D813D2A106DA5251FCA568B8DCD3D7CFE9985DB70FDCE44CF80097D0052669A2 ====

------

Exact Audio Copy V1.0 beta 3 from 29. August 2011

EAC extraction logfile from 16. May 2014, 0:29

Janelle Monáe / The Electric Lady 2013

Used drive : HL-DT-STDVDRAM GSA-T50L Adapter: 1 ID: 0

Read mode : Secure
Utilize accurate stream : Yes
Defeat audio cache : Yes
Make use of C2 pointers : No

Read offset correction : 667
Overread into Lead-In and Lead-Out : No
Fill up missing offset samples with silence : Yes
Delete leading and trailing silent blocks : No
Null samples used in CRC calculations : Yes
Used interface : Native Win32 interface for Win NT & 2000
Gap handling : Appended to previous track

Used output format : User Defined Encoder
Selected bitrate : 1024 kBit/s
Quality : High
Add ID3 tag : No
Command line compressor : C:Program FilesFLACflac.exe
Additional command line options : -8 -V -T "ARTIST=%artist%" -T "TITLE=%title%" -T "ALBUM=%albumtitle%" -T "DATE=%year%" -T "TRACKNUMBER=%tracknr%" -T "GENRE=%genre%" -T "PERFORMER=%albuminterpret%" -T "COMPOSER=%composer%" %haslyrics%--tag-from-file=LYRICS="%lyricsfile%"%haslyrics% -T "ALBUMARTIST=%albumartist%" -T "DISCNUMBER=%cdnumber%" -T "TOTALDISCS=%totalcds%" -T "TOTALTRACKS=%numtracks%" -T "COMMENT=%comment%" %source% -o %dest%

TOC of the extracted CD Track | Start | Length | Start sector | End sector
---
1 | 0:00.00 | 1:37.03 | 0 | 7277
2 | 1:37.03 | 4:26.03 | 7278 | 27230
3 | 6:03.06 | 5:10.36 | 27231 | 50516
4 | 11:13.42 | 5:08.67 | 50517 | 73683
5 | 16:22.34 | 1:22.41 | 73684 | 79874
6 | 17:45.00 | 4:40.06 | 79875 | 100880
7 | 22:25.06 | 4:19.35 | 100881 | 120340
8 | 26:44.41 | 1:10.30 | 120341 | 125620
9 | 27:54.71 | 3:25.15 | 125621 | 141010
10 | 31:20.11 | 2:18.70 | 141011 | 151430
11 | 33:39.06 | 2:20.08 | 151431 | 161938
12 | 35:59.14 | 4:05.30 | 161939 | 180343
13 | 40:04.44 | 4:46.50 | 180344 | 201843
14 | 44:51.19 | 1:23.26 | 201844 | 208094
15 | 46:14.45 | 4:12.38 | 208095 | 227032
16 | 50:27.08 | 3:54.36 | 227033 | 244618
17 | 54:21.44 | 4:08.16 | 244619 | 263234
18 | 58:29.60 | 4:15.59 | 263235 | 282418
19 | 62:45.44 | 4:57.02 | 282419 | 304695

Track 1 Filename C:FLAC1 Suite IV Electric Overture.wav Pre-gap length 0:00:02.00 Peak level 96.6 %
Extraction speed 2.0 X
Track quality 100.0 %
Test CRC 2AAAC43B
Copy CRC 2AAAC43B
Track not present in AccurateRip database
Copy OK

Track 2 Filename C:FLAC2 Givin Em What They Love (Janelle Monáe Featuring Prince).wav Peak level 96.7 %
Extraction speed 2.6 X
Track quality 100.0 %
Test CRC 12CDC305
Copy CRC 12CDC305
Track not present in AccurateRip database
Copy OK

Track 3 Filename C:FLAC3 Q.U.E.E.N (Janelle Monáe Featuring Erykah Badu).wav Peak level 99.4 %
Extraction speed 2.9 X
Track quality 100.0 %
Test CRC D9D32B43
Copy CRC D9D32B43
Track not present in AccurateRip database
Copy OK

Track 4 Filename C:FLAC4 Electric Lady (Janelle Monáe Featuring Solange).wav Peak level 100.0 %
Extraction speed 3.1 X
Track quality 100.0 %
Test CRC C764EA6A
Copy CRC C764EA6A
Track not present in AccurateRip database
Copy OK

Track 5 Filename C:FLAC5 Good Morning Midnight.wav Peak level 76.7 %
Extraction speed 2.4 X
Track quality 100.0 %
Test CRC 03A9B8D7
Copy CRC 03A9B8D7
Track not present in AccurateRip database
Copy OK

Track 6 Filename C:FLAC6 Primetime (Janelle Monáe Featuring Miguel).wav Peak level 96.5 %
Extraction speed 3.3 X
Track quality 100.0 %
Test CRC 3EB8A484
Copy CRC 3EB8A484
Track not present in AccurateRip database
Copy OK

Track 7 Filename C:FLAC7 We Were Rock & Roll.wav Peak level 100.0 %
Extraction speed 3.5 X
Track quality 100.0 %
Test CRC 8CFBE5B3
Copy CRC 8CFBE5B3
Track not present in AccurateRip database
Copy OK

Track 8 Filename C:FLAC8 The Chrome Shoppe.wav Peak level 60.9 %
Extraction speed 2.0 X
Track quality 99.8 %
Test CRC B8FFFF96
Copy CRC B8FFFF96
Track not present in AccurateRip database
Copy OK

Track 9 Filename C:FLAC9 Dance Apocalyptic.wav Peak level 96.6 %
Extraction speed 3.1 X
Track quality 99.9 %
Test CRC 4CF8C7EC
Copy CRC 4CF8C7EC
Track not present in AccurateRip database
Copy OK

Track 10 Filename C:FLAC10 Look Into My Eyes.wav Peak level 100.0 %
Extraction speed 3.5 X
Track quality 100.0 %
Test CRC BBCB703A
Copy CRC BBCB703A
Track not present in AccurateRip database
Copy OK

Track 11 Filename C:FLAC11 Suite V Electric Overture.wav Peak level 96.6 %
Extraction speed 2.8 X
Track quality 99.9 %
Test CRC F62297D4
Copy CRC F62297D4
Track not present in AccurateRip database
Copy OK

Track 12 Filename C:FLAC12 It's Code.wav Peak level 76.7 %
Extraction speed 4.0 X
Track quality 100.0 %
Test CRC FC62E9AF
Copy CRC FC62E9AF
Track not present in AccurateRip database
Copy OK

Track 13 Filename C:FLAC13 Ghetto Woman.wav Peak level 96.6 %
Extraction speed 4.2 X
Track quality 100.0 %
Test CRC 7330B963
Copy CRC 7330B963
Track not present in AccurateRip database
Copy OK

Track 14 Filename C:FLAC14 Our Favorite Fugitive.wav Peak level 76.7 %
Extraction speed 2.5 X
Track quality 99.8 %
Test CRC 1DF5D1BA
Copy CRC 1DF5D1BA
Track not present in AccurateRip database
Copy OK

Track 15 Filename C:FLAC15 Victory.wav Peak level 96.6 %
Extraction speed 4.3 X
Track quality 100.0 %
Test CRC 61D17686
Copy CRC 61D17686
Track not present in AccurateRip database
Copy OK

Track 16 Filename C:FLAC16 Can't Live Without Your Love.wav Peak level 96.6 %
Extraction speed 4.4 X
Track quality 100.0 %
Test CRC DA216613
Copy CRC DA216613
Track not present in AccurateRip database
Copy OK

Track 17 Filename C:FLAC17 Sally Ride.wav Peak level 96.6 %
Extraction speed 4.5 X
Track quality 100.0 %
Test CRC 9AC893C1
Copy CRC 9AC893C1
Track not present in AccurateRip database
Copy OK

Track 18 Filename C:FLAC18 Dorothy Dandridge Eyes (Janelle Monáe Featuring Esperanza Spalding).wav Peak level 96.6 %
Extraction speed 4.7 X
Track quality 100.0 %
Test CRC 712E47B0
Copy CRC 712E47B0
Track not present in AccurateRip database
Copy OK

Track 19 Filename C:FLAC19 What An Experience.wav Peak level 96.6 %
Extraction speed 4.9 X
Track quality 100.0 %
Test CRC D0E3C9E3
Copy CRC D0E3C9E3
Track not present in AccurateRip database
Copy OK

None of the tracks are present in the AccurateRip database

No errors occurred

End of status report

==== Log checksum D813D2A106DA5251FCA568B8DCD3D7CFE9985DB70FDCE44CF80097D0052669A2 ====

foobar2000 1.2 / Dynamic Range Meter 1.1.1
log date: 2014-08-29 16:41:12

--
Analyzed: Janelle Monae / The Electric Lady 2013
--

DR Peak RMS Duration Track
--
DR9 -0.30 dB -11.83 dB 1:37 01-Suite IV Electric Overture
DR8 -0.29 dB -10.32 dB 4:26 02-Givin Em What They Love (Featuring Prince)
DR7 -0.05 dB -9.61 dB 5:10 03-Q.U.E.E.N (Featuring Erykah Badu)
DR8 0.00 dB -9.56 dB 5:09 04-Electric Lady (Featuring Solange)
DR10 -2.30 dB -14.18 dB 1:23 05-Good Morning Midnight
DR8 -0.30 dB -9.60 dB 4:40 06-Primetime (Featuring Miguel)
DR8 0.00 dB -10.22 dB 4:19 07-We Were Rock & Roll
DR9 -4.30 dB -14.68 dB 1:10 08-The Chrome Shoppe
DR7 -0.30 dB -8.98 dB 3:25 09-Dance Apocalyptic
DR9 0.00 dB -10.80 dB 2:19 10-Look Into My Eyes
DR11 -0.30 dB -14.59 dB 2:20 11-Suite V Electric Overture
DR8 -2.30 dB -12.20 dB 4:05 12-It's Code
DR8 -0.30 dB -10.34 dB 4:47 13-Ghetto Woman
DR10 -2.30 dB -13.64 dB 1:23 14-Our Favorite Fugitive
DR8 -0.30 dB -10.22 dB 4:13 15-Victory
DR7 -0.30 dB -8.46 dB 3:54 16-Can't Live Without Your Love
DR9 -0.30 dB -12.14 dB 4:08 17-Sally Ride
DR9 -0.30 dB -10.42 dB 4:16 18-Dorothy Dandridge Eyes (Featuring Esperanza Spalding)
DR7 -0.30 dB -9.34 dB 4:57 19-What An Experience
--

Number of tracks: 19
Official DR value: DR8

Samplerate: 44100 Hz
Channels: 2
Bits per sample: 16
Bitrate: 792 kbps
Codec: FLAC
=

http://i63.fastpic.ru/big/2014/0831/5c/021f38aba77f99e156f110e9366d285c.jpg

http://i67.fastpic.ru/big/2014/0831/94/96e4ba5b8efbda1289435a8d38c3b094.jpg


DOWNLOAD
(Premium Recommended)


All above links are interchangable. No password
Direct Download

Tags: Electric, Janelle
Dance Off The Inches Hip Hop Body Blast | Daleide Co M Dld Vanderpum P Rules Uncenso Red Nudity | Public Notes Normal Version Login Rsada Rk Rsgeioevltow | Espn The Body Issue | Kids Erotik Model | C W Kilmi Ster Relat Ivity | Download Salli Ivona Voice | Canale Rusesti Onlaine | User Fhgbhhhjjd | Ilok Hack Download | Jazz Ezkeys Midi Download | Chezh Gang Band | Dragons Die Reiter Von Berg Spiele | Introduction To Finance Coursera Final Rk Rs | Premium Account Passwords For Ryushare | Mom Boy Sex Video | Maria Ozawa Torrent Hd | Resident Evil Porn Game | Avanset Login | Corel Draw Mac Yosemite Mediafire

Janelle Monae The Electric Lady 2013 Download via Hotfile Rapidshare Fileserve Megaupload & FileSonic, Janelle Monae The Electric Lady 2013 free torrent downloads included crack, serial, keygen.


Add comments

Your Name:
Your E-Mail:

Security Code:
Include security image CAPCHA.
update code
Insert Code: