AOR L.A Connection 2014 [Japanese Ed.]

Download Now

http://i65.fastpic.ru/big/2014/0902/ab/5f039f32e1450dfbd2abb1eaedd9caab.jpg

AOR - L.A Connection (2014) [Japanese Ed.]
EAC Rip | FLAC: Image+Cue+Log | 453 Mb | MP3 CBR 320 kbps | 157 Mb | Scans | 86 Mb | Time: 56:12
Genre: Rock, Melodic Rock, AOR | Label: Rubicon Music | Cat.? RBNCD-1168

"L.A Connection is the thirteenth album in Frédéric Slama's AOR discography - and a clear proof that all the superstition regarding the unluckiness of the number "13? is much hyped anyway! For this 13th album, AOR is flirting with heavier territories with songs reminiscent of Foreigner, Giant, Journey & Toto.The first class production by Frédéric Slama & Tommy Denander will leave you breathless and the legendary singers of «L.A Connection» will surely take Melodic Rock to new heights! So it's time for the "L.A Connection"!"




Track Listing

1. On The Edge of Glory (6:56)
2. The Pride Of Strangers (4:55)
3. Closer To Zero (4:21)
4. Once Off Guard (5:08)
5. Lost Souls Don't Cry (5:00)
6. Exiled In Sadness (4:53)
7. Age Of Desire (4:49)
8. Circle Of Danger (4:05)
9. The Crystal Heart (6:10)
Bonus tracks for Japan
10. Forbidden Temptations * (5:15)
11. Name Of The Game (4:40)

Produced by Frédéric Slama
Tommy Denander & Paul Sabu *

The Band

* Frédéric Slama - Guitars, Keyboards
Tommy Denander (Radioactive, Paul Stanley, Alice Cooper) - All Instruments
Bill Champlin (Chicago) - Lead, Backing Vocals
Paul Sabu (Only Child, Kidd Glove) - Lead, Backing Vocals
Jeff Paris - Lead, Backing Vocals
Sherwood Ball (Jay Graydon) - Lead, Backing Vocals
David Forbes (Boulevard) - Lead, Backing Vocals
Philip Bardowell (Places Of Power, Unruly Child) - Lead, Backing Vocals
Bob Harris (Axe) - Lead, Backing Vocals
Rick Riso - Lead, Backing Vocals
Tamara Champlin - Lead, Backing Vocals
Pete Newdeck - Backing Vocals
Colin Rodgers - Guitars, Bass
Pat Thern - Drums

Exact Audio Copy V1.0 beta 3 from 29. August 2011

EAC extraction logfile from 30. August 2014, 12:59

AOR / L.A Connection

Used drive : SlimtypeDVD A DS8A5SH Adapter: 0 ID: 1

Read mode : Secure
Utilize accurate stream : Yes
Defeat audio cache : Yes
Make use of C2 pointers : No

Read offset correction : 6
Overread into Lead-In and Lead-Out : No
Fill up missing offset samples with silence : Yes
Delete leading and trailing silent blocks : No
Null samples used in CRC calculations : Yes
Used interface : Native Win32 interface for Win NT & 2000

Used output format : User Defined Encoder
Selected bitrate : 320 kBit/s
Quality : High
Add ID3 tag : No
Command line compressor : C:Program Files (x86)Exact Audio CopyFlacflac.exe
Additional command line options : -V -8 -T "Date=%year%" -T "Genre=%genre%" %source%

TOC of the extracted CD Track | Start | Length | Start sector | End sector
---
1 | 0:00.00 | 6:56.01 | 0 | 31200
2 | 6:56.01 | 4:55.02 | 31201 | 53327
3 | 11:51.03 | 4:21.02 | 53328 | 72904
4 | 16:12.05 | 5:08.02 | 72905 | 96006
5 | 21:20.07 | 5:00.01 | 96007 | 118507
6 | 26:20.08 | 4:53.02 | 118508 | 140484
7 | 31:13.10 | 4:49.02 | 140485 | 162161
8 | 36:02.12 | 4:05.02 | 162162 | 180538
9 | 40:07.14 | 6:10.02 | 180539 | 208290
10 | 46:17.16 | 5:15.01 | 208291 | 231916
11 | 51:32.17 | 4:40.02 | 231917 | 252918

Range status and errors

Selected range Filename D:My MusicAOR - 2014 L.A ConnectionAOR - L.A Connection.wav Peak level 86.3 %
Extraction speed 4.5 X
Range quality 100.0 %
Test CRC AEE67B2A
Copy CRC AEE67B2A
Copy OK

No errors occurred

AccurateRip summary

Track 1 not present in database
Track 2 not present in database
Track 3 not present in database
Track 4 not present in database
Track 5 not present in database
Track 6 not present in database
Track 7 not present in database
Track 8 not present in database
Track 9 not present in database
Track 10 not present in database
Track 11 not present in database

None of the tracks are present in the AccurateRip database

End of status report

==== Log checksum 458581D647419EA5B17120AA56DD8E96784C2255DD912EB92AB6A09223E66441 ====

Many thanks to the original uploader: kolushew
DOWNLOAD
(Premium Recommended)


All above links are interchangable. No password
Direct Download

Tags: Japanese, Connection
Satyanarayan Biochemistry | Reallifecam Spy Home Videos Masturbation | Hiccup Having Sex Hq Pictures | Hentai Fairy Tell gp | Hakin Magazine Download Torrent | Serial Para Nero Expres | Gru And Lucy Having Sex Uncensored | Gloss Media Pack After Effects Project Videohive | Crack For Sage | Game Of Thrones With English Subtitles Streaming S | Game Of Thrones Series Kick Ass Rip Download | Game Maker Studio License Key | Ah Boys To Men Full Movie Download | Fxguru Police Chase | Free Lantek Manualtutorial | Yukon Gold Season S Torrent | Free Download Anysex | Free Czech Hunter Full | Fre Bengal Bokep | Fkk Pictures Family

AOR L.A Connection 2014 [Japanese Ed.] Download via Hotfile Rapidshare Fileserve Megaupload & FileSonic, AOR L.A Connection 2014 [Japanese Ed.] free torrent downloads included crack, serial, keygen.


Add comments

Your Name:
Your E-Mail:

Security Code:
Include security image CAPCHA.
update code
Insert Code: