Hickox Shelley Carwithen Orchestral Music 2006

Download Now

http://i68.fastpic.ru/big/2014/0903/16/9eeea1cff9181e24a7a30b9e581e7616.jpg

Hickox, Shelley - Carwithen: Orchestral Music (2006)
X Lossless Decoder | Flac (Tracks + cue + log) | 1 CD | Full Scans | 231 MB
Genre: Classical | Label: Chandos | Catalog Number: 10365

"Doreen Carwithen is better known as the devoted wife, Mary, of the composer William Alwyn. When Chandos brought out this CD in the mid-1990s, it revealed her to be a substantial creative personality in her own right: she emerged as a warmly communicative composer, the style of her work owing more to Walton than to her husband. Her writing is strong and purposeful, sometimes adopting syncopated rhythms and stirring melodies, and always enhanced with brilliant and inventive orchestration. We are therefore delighted to reissue these works and at mid-price for the first time."


Composer: Doreen Carwithen
Performer: Howard Shelley
Conductor: Richard Hickox
Orchestra/Ensemble: London Symphony Orchestra

"Reviews: The composer Doreen Carwithen, vigorous in her music as well as warmly lyrical, has hidden her light for over 40 years, selflessly devoting herself instead to the music of her husband, William Alwyn. Since he died in 1985, Doreen Carwithen (a.k.a. Mary Alwyn) has worked hard for the William Alwyn Foundation and William Alwyn Archive, which she founded, but it is good now to have her emerging in her own right as a positive and strongly communicative figure, writing music which relates more to that of Walton than of her husband.

Not that these colourful and brilliantly orchestrated works lack individuality, just that from time to time one detects Waltonian fingerprints in the jazzy syncopations, brassy fanfares and stirring melodies. Carwithen was an outstanding student at the Royal Academy of Music in the early war years, studying with Alwyn and winning all the Academy composition prizes. ODTTA, suggested by John Masdfield's novel of that name, was her first full orchestral work to be performed, premiered in 1947, a flamboyant piece full of striking ideas, with Waltonian echoes spiced with one or two of Stravinsky and even of the pastoral Vaughan Williams. I mention those echoes to give an idea of the flavour, not to suggest that this is just a derivative piece, for here, as in all four works, the expression is positive and purposeful, reflecting one who knows precisely what she wants to do.

She learnt her trade practically over the following years as a film composer, producing some 30 scores. So when in 1962 she was asked to write a piece for a royal visit to Framlingham College in Suffolk, near where she and her husband had their home, she used melodies from music she had written for a film about East Anglia. The wonder of this delightful, unpretentious little Suffolk Suite is that though this is music written for schoolchildren to play, you would hardly guess that from the richness of the scoring. The Bishop Rock Overture, premiered at the CBSO Proms in 1952, opens as a craggy sea-picture, vividly evocative, lashed by vigorous syncopations. The main theme is later transformed to show the sea in gentle but menacing mood, with the cor anglais especially evocative.

By far the longest work is the Concerto for piano and strings of 1948, which, despite a bald opening in bare octaves, belies any expectation of a limited work, with strong, virtuoso piano writing set against richly textured strings. Here, too, the argument is always inventive, with themes colourfully transformed, easily sustaining its length, with the first movement alone lasting 12 minutes and the other two just over eight minutes each. The deeply melancholy slow movement is dominated by a solo violin, in parallel with the piano, accompanied by muted strings. But then the finale, in places rather like that of the Ireland Piano Concerto, contrasts chattering, sharply rhythmic passages with warmly lyrical sections. Howard Shelley as soloist responds strongly to the purposefulness of the writing, as do Hickox and the LSO in the works here, powerful and convincing advocates.""


Tracklisting:

1 ODTAA (One Damn Thing After Another) 8:18
Overture
Allegro ma non troppo

Concerto for Piano and Strings* 28:57
2 I Allegro assai 12:05
3 II Lento 8:23
4 III Moderato e deciso ma con moto 8:22

5 Bishop Rock 8:17
Overture
Allegro con energico

Suffolk Suite 11:42
6 I Prelude. Moderato 2:22
7 II Orford Ness. Allegretto grazioso 3:51
8 III Suffolk Morris. Ritmico 3:20
9 IV Framlingham Castle. Alla marcia 2:01

X Lossless Decoder version 20131102 (145.0)

XLD extraction logfile from 2013-11-30 20:23:53 -0500

London Symphony Orchestra, Richard Hickox / Carwithen: Orchestral Music

Used drive : OPTIARC DVD RW AD-5680H (revision 3AHF)
Media type : Pressed CD

Ripper mode : XLD Secure Ripper
Disable audio cache : OK for the drive with a cache less than 1375KiB
Make use of C2 pointers : NO
Read offset correction : 48
Max retry count : 20
Gap status : Analyzed, Appended (except HTOA)

TOC of the extracted CD
Track | Start | Length | Start sector | End sector
---
1 | 00:00:00 | 08:24:05 | 0 | 37804
2 | 08:24:05 | 12:09:68 | 37805 | 92547
3 | 20:33:73 | 08:24:70 | 92548 | 130417
4 | 28:58:68 | 08:28:27 | 130418 | 168544
5 | 37:27:20 | 08:21:73 | 168545 | 206192
6 | 45:49:18 | 02:24:69 | 206193 | 217061
7 | 48:14:12 | 03:53:51 | 217062 | 234587
8 | 52:07:63 | 03:22:16 | 234588 | 249753
9 | 55:30:04 | 02:02:71 | 249754 | 258974

AccurateRip Summary
Disc not found in AccurateRip DB.

All Tracks
Album gain : -1.65 dB
Peak : 0.999969
Statistics
Read error : 0
Jitter error (maybe fixed) : 0
Retry sector count : 0
Damaged sector count : 0

Track 01
Filename : /Volumes/Big Daddy II/XLD rips/London Symphony Orchestra, Richard Hickox - Carwithen: Orchestral Music (1996) [FLAC]/01 Carwithen: Overture ODTAA: One Damn Thing After Another.flac
Pre-gap length : 00:02:00 Track gain : -3.04 dB
Peak : 0.999023
CRC32 hash (test run) : 046EB829
CRC32 hash : 046EB829
CRC32 hash (skip zero) : F8B7542C
AccurateRip v1 signature : 28CA6408
AccurateRip v2 signature : C35B295E
->Track not present in AccurateRip database.
Statistics
Read error : 0
Jitter error (maybe fixed) : 0
Retry sector count : 0
Damaged sector count : 0

Track 02
Filename : /Volumes/Big Daddy II/XLD rips/London Symphony Orchestra, Richard Hickox - Carwithen: Orchestral Music (1996) [FLAC]/02 Carwithen: Concerto for Piano and Strings: Allegro assai.flac
Pre-gap length : 00:04:58 Track gain : -1.57 dB
Peak : 0.987671
CRC32 hash (test run) : E601271F
CRC32 hash : E601271F
CRC32 hash (skip zero) : 28301EA6
AccurateRip v1 signature : 1ED2AFB9
AccurateRip v2 signature : 9AB2465E
->Track not present in AccurateRip database.
Statistics
Read error : 0
Jitter error (maybe fixed) : 0
Retry sector count : 0
Damaged sector count : 0

Track 03
Filename : /Volumes/Big Daddy II/XLD rips/London Symphony Orchestra, Richard Hickox - Carwithen: Orchestral Music (1996) [FLAC]/03 Carwithen: Concerto for Piano and Strings: Lento.flac
Pre-gap length : 00:04:58 Track gain : 5.01 dB
Peak : 0.689697
CRC32 hash (test run) : 7EEF2FC1
CRC32 hash : 7EEF2FC1
CRC32 hash (skip zero) : DDD34DDB
AccurateRip v1 signature : BA722CA6
AccurateRip v2 signature : B857D3BC
->Track not present in AccurateRip database.
Statistics
Read error : 0
Jitter error (maybe fixed) : 0
Retry sector count : 0
Damaged sector count : 0

Track 04
Filename : /Volumes/Big Daddy II/XLD rips/London Symphony Orchestra, Richard Hickox - Carwithen: Orchestral Music (1996) [FLAC]/04 Carwithen: Concerto for Piano and Strings: Moderato e deciso ma con moto.flac
Pre-gap length : 00:01:58 Track gain : -2.01 dB
Peak : 0.977234
CRC32 hash (test run) : CF4FD59A
CRC32 hash : CF4FD59A
CRC32 hash (skip zero) : 4E838DFE
AccurateRip v1 signature : 9106206A
AccurateRip v2 signature : 10FC0D66
->Track not present in AccurateRip database.
Statistics
Read error : 0
Jitter error (maybe fixed) : 0
Retry sector count : 0
Damaged sector count : 0

Track 05
Filename : /Volumes/Big Daddy II/XLD rips/London Symphony Orchestra, Richard Hickox - Carwithen: Orchestral Music (1996) [FLAC]/05 Carwithen: Bishop Rock: Allegro con energico.flac
Pre-gap length : 00:05:58 Track gain : -3.60 dB
Peak : 0.999969
CRC32 hash (test run) : BFA92171
CRC32 hash : BFA92171
CRC32 hash (skip zero) : 87FBFB74
AccurateRip v1 signature : 58BA6F3E
AccurateRip v2 signature : E7929856
->Track not present in AccurateRip database.
Statistics
Read error : 0
Jitter error (maybe fixed) : 0
Retry sector count : 0
Damaged sector count : 0

Track 06
Filename : /Volumes/Big Daddy II/XLD rips/London Symphony Orchestra, Richard Hickox - Carwithen: Orchestral Music (1996) [FLAC]/06 Carwithen: Suffolk Suite: Prelude: Moderato.flac
Pre-gap length : 00:04:58 Track gain : 0.10 dB
Peak : 0.643646
CRC32 hash (test run) : C9B36376
CRC32 hash : C9B36376
CRC32 hash (skip zero) : 2750183B
AccurateRip v1 signature : B3216908
AccurateRip v2 signature : 4F16C59E
->Track not present in AccurateRip database.
Statistics
Read error : 0
Jitter error (maybe fixed) : 0
Retry sector count : 0
Damaged sector count : 0

Track 07
Filename : /Volumes/Big Daddy II/XLD rips/London Symphony Orchestra, Richard Hickox - Carwithen: Orchestral Music (1996) [FLAC]/07 Carwithen: Suffolk Suite: Orford Ness: Allegretto grazioso.flac
Pre-gap length : 00:02:58 Track gain : 8.39 dB
Peak : 0.459778
CRC32 hash (test run) : 279385A7
CRC32 hash : 279385A7
CRC32 hash (skip zero) : DF579147
AccurateRip v1 signature : 7CE1BD9F
AccurateRip v2 signature : 50960493
->Track not present in AccurateRip database.
Statistics
Read error : 0
Jitter error (maybe fixed) : 0
Retry sector count : 0
Damaged sector count : 0

Track 08
Filename : /Volumes/Big Daddy II/XLD rips/London Symphony Orchestra, Richard Hickox - Carwithen: Orchestral Music (1996) [FLAC]/08 Carwithen: Suffolk Suite: Suffolk Morris: Ritmico.flac
Pre-gap length : 00:02:58 Track gain : 5.26 dB
Peak : 0.715607
CRC32 hash (test run) : 2889F30D
CRC32 hash : 2889F30D
CRC32 hash (skip zero) : B8605F3C
AccurateRip v1 signature : E108CAD3
AccurateRip v2 signature : BFADA490
->Track not present in AccurateRip database.
Statistics
Read error : 0
Jitter error (maybe fixed) : 0
Retry sector count : 0
Damaged sector count : 0

Track 09
Filename : /Volumes/Big Daddy II/XLD rips/London Symphony Orchestra, Richard Hickox - Carwithen: Orchestral Music (1996) [FLAC]/09 Carwithen: Suffolk Suite: Framlingham Castle: Alla marcia.flac
Pre-gap length : 00:01:58 Track gain : -2.42 dB
Peak : 0.977264
CRC32 hash (test run) : 7D409833
CRC32 hash : 7D409833
CRC32 hash (skip zero) : AEBC6DFC
AccurateRip v1 signature : 16DA9D32
AccurateRip v2 signature : 71F41BE1
->Track not present in AccurateRip database.
Statistics
Read error : 0
Jitter error (maybe fixed) : 0
Retry sector count : 0
Damaged sector count : 0

No errors occurred

End of status report

-----BEGIN XLD SIGNATURE-----
2c.Je0xgxE8QDj1fITgiIMbb73hAO3nQKPl8SfIrW3oAs3JmjjoTBTH9xPtbgoAfvgq6a9_SLtfd3AO_iSiFQxUO75FdTQQNP_J27p4
-----END XLD SIGNATURE-----
DOWNLOAD
(Premium Recommended)


All above links are interchangable. No password
Direct Download

Tags: Orchestral, Carwithen, Shelley, Hickox
Download Windows Pro Iso Build | Posing Evolution Roberto Valenzuela Rapidshare | Honda Dvd Satellite Navigation System Free Torrent Download | Windows Enterprise Product Key Rodoved Ebook My Gopro Hero Camera | Tom Y Jerry Cartoon Porno | Zip Ministry Of Sound I A Sessions | Project C A R S Pc Game Download Torrent | Mouse Trip Torrent | Expert Authors Article Directory All Rights Reserved Rk Rsl Bb | Body Balance Descargar | Multi Loader By Paky | Lesbian Frozen Fanfiction Annas Birthday | Xdesi Mobi China X | Public Notes Terms Of Service Normal Version Rk Rsc Rk Rssvvos | Fxphd C Download Rsadafzbzzwuuoc Ctw | Using Typescript For Large Angularjs Applicationsqu Ot Torrent | Trf th Anniversary Complete Torrent Nayy | Film Tali Pocong Perawan Netload | Cucm Iso Torrent

Hickox Shelley Carwithen Orchestral Music 2006 Download via Hotfile Rapidshare Fileserve Megaupload & FileSonic, Hickox Shelley Carwithen Orchestral Music 2006 free torrent downloads included crack, serial, keygen.


Add comments

Your Name:
Your E-Mail:

Security Code:
Include security image CAPCHA.
update code
Insert Code: