Various Artists Clouds Cloudy Days 2013

Download Now

http://i68.fastpic.ru/big/2014/0912/6c/380e1ce85351deee50945f0b8e022b6c.jpg

Various Artists - Clouds: Cloudy Days (2013)
EAC Rip | FLAC Tracks + Cue + Log - 444 MB | MP3 CBR @320 kbps - 166 MB | Full scans - 117 MB
Label: Wormland Music | Catalog.#: .WMCD014-2 | Genre: Lounge

Compiled by DJ Ping



Track Listing:

01. Ryan Adams - Wonderwall (Album Version) - 4:10
02. Night Bird - Mad World - 3:26
03. Urselle - Purple Rain - 3:59
04. Michelle Simonal - With Or Without You - 3:43
05. Nector Zazou, Barbara Eramo, Stefano Saletti - Heart Of Glass - 4:38
06. Liula - Sweet Dreams - 4:01
07. Oceana - Baby One More Time - 2:26
08. Lexy Greenwell - Get Lucky - 3:25
09. Karen Souza - Every Breath You Take - 2:49
10. Rever Sound Feat. Eve - Pride (In The Name Of Love) - 2:20
11. Lee Arvil - Luka - 3:46
12. Ane Braun - Big In Japan - 3:08
13. Sister Kat - I Will Survave - 3:32
14. Berk & The Virtual Band - Personal Jesus - 3:57
15. Albane Alcalay - Give Me The Night - 5:08
16. Bb Valentine - Somebody Else's Guy - 4:18
17. World Mestizo Ensemble Presents Acoustic - Self Control - 3:30
18. Veronica M - That's The Way (I Like It) - 3:08
19. Liza Everson - Don't Look Any Further - 5:06

Exact Audio Copy V1.0 beta 3 from 29. August 2011

EAC extraction logfile from 4. September 2014, 11:59

Various Artists / Clouds - Cloudy Days By Ping

Used drive : ASUS DRW-24B3ST Adapter: 3 ID: 0

Read mode : Secure
Utilize accurate stream : Yes
Defeat audio cache : Yes
Make use of C2 pointers : No

Read offset correction : 6
Overread into Lead-In and Lead-Out : No
Fill up missing offset samples with silence : Yes
Delete leading and trailing silent blocks : No
Null samples used in CRC calculations : Yes
Used interface : Native Win32 interface for Win NT & 2000
Gap handling : Appended to previous track

Used output format : User Defined Encoder
Selected bitrate : 896 kBit/s
Quality : High
Add ID3 tag : No
Command line compressor : C:Program Files (x86)Exact Audio CopyFlacflac.exe
Additional command line options : -8 -V -T "ARTIST=%artist%" -T "TITLE=%title%" -T "ALBUM=%albumtitle%" -T "DATE=%year%" -T "TRACKNUMBER=%tracknr%" -T "GENRE=%genre%" -T "COMMENT=ripped by Oleandris" %source%

TOC of the extracted CD Track | Start | Length | Start sector | End sector
---
1 | 0:00.00 | 4:09.42 | 0 | 18716
2 | 4:09.42 | 3:25.67 | 18717 | 34158
3 | 7:35.34 | 3:59.04 | 34159 | 52087
4 | 11:34.38 | 3:42.58 | 52088 | 68795
5 | 15:17.21 | 4:38.37 | 68796 | 89682
6 | 19:55.58 | 4:01.28 | 89683 | 107785
7 | 23:57.11 | 2:26.28 | 107786 | 118763
8 | 26:23.39 | 3:25.18 | 118764 | 134156
9 | 29:48.57 | 2:48.42 | 134157 | 146798
10 | 32:37.24 | 2:20.11 | 146799 | 157309
11 | 34:57.35 | 3:46.32 | 157310 | 174291
12 | 38:43.67 | 3:08.15 | 174292 | 188406
13 | 41:52.07 | 3:31.39 | 188407 | 204270
14 | 45:23.46 | 3:56.56 | 204271 | 222026
15 | 49:20.27 | 5:08.09 | 222027 | 245135
16 | 54:28.36 | 4:17.53 | 245136 | 264463
17 | 58:46.14 | 3:30.37 | 264464 | 280250
18 | 62:16.51 | 3:08.30 | 280251 | 294380
19 | 65:25.06 | 5:05.51 | 294381 | 317306

Track 1 Filename F:抢眯忧嗜 Clouds - Cloudy Days By Ping (2013)1. Ryan Adams - Wonderwall (Album Version).wav Pre-gap length 0:00:02.00 Peak level 97.7 %
Extraction speed 1.8 X
Track quality 100.0 %
Test CRC 0A0B41A4
Copy CRC 0A0B41A4
Track not present in AccurateRip database
Copy OK

Track 2 Filename F:抢眯忧嗜 Clouds - Cloudy Days By Ping (2013)2. Night Bird - Mad World.wav Peak level 92.3 %
Extraction speed 2.0 X
Track quality 100.0 %
Test CRC 137C50F4
Copy CRC 137C50F4
Track not present in AccurateRip database
Copy OK

Track 3 Filename F:抢眯忧嗜 Clouds - Cloudy Days By Ping (2013)3. Urselle - Purple Rain.wav Peak level 96.6 %
Extraction speed 1.6 X
Track quality 99.9 %
Test CRC 695BB73E
Copy CRC 695BB73E
Track not present in AccurateRip database
Copy OK

Track 4 Filename F:抢眯忧嗜 Clouds - Cloudy Days By Ping (2013)4. Michelle Simonal - With Or Without You.wav Peak level 96.6 %
Extraction speed 1.7 X
Track quality 99.9 %
Test CRC ED78E58B
Copy CRC ED78E58B
Track not present in AccurateRip database
Copy OK

Track 5 Filename F:抢眯忧嗜 Clouds - Cloudy Days By Ping (2013)5. Nector Zazou, Barbara Eramo, Stefano Saletti - Heart Of Glass.wav Peak level 93.5 %
Extraction speed 2.6 X
Track quality 100.0 %
Test CRC 7BF2C98D
Copy CRC 7BF2C98D
Track not present in AccurateRip database
Copy OK

Track 6 Filename F:抢眯忧嗜 Clouds - Cloudy Days By Ping (2013)6. Liula - Sweet Dreams.wav Peak level 93.2 %
Extraction speed 1.9 X
Track quality 99.9 %
Test CRC 11B2EED0
Copy CRC 11B2EED0
Track not present in AccurateRip database
Copy OK

Track 7 Filename F:抢眯忧嗜 Clouds - Cloudy Days By Ping (2013)7. Oceana - Baby One More Time.wav Peak level 78.4 %
Extraction speed 2.5 X
Track quality 100.0 %
Test CRC F22AAEC8
Copy CRC F22AAEC8
Track not present in AccurateRip database
Copy OK

Track 8 Filename F:抢眯忧嗜 Clouds - Cloudy Days By Ping (2013)8. Lexy Greenwell - Get Lucky.wav Peak level 97.7 %
Extraction speed 2.8 X
Track quality 100.0 %
Test CRC F2540752
Copy CRC F2540752
Track not present in AccurateRip database
Copy OK

Track 9 Filename F:抢眯忧嗜 Clouds - Cloudy Days By Ping (2013)9. Karen Souza - Every Breath You Take.wav Peak level 88.1 %
Extraction speed 2.8 X
Track quality 100.0 %
Test CRC 485D9465
Copy CRC 485D9465
Track not present in AccurateRip database
Copy OK

Track 10 Filename F:抢眯忧嗜 Clouds - Cloudy Days By Ping (2013)10. Rever Sound Feat. Eve - Pride (In The Name Of Love).wav Peak level 97.7 %
Extraction speed 2.7 X
Track quality 100.0 %
Test CRC 1601F917
Copy CRC 1601F917
Track not present in AccurateRip database
Copy OK

Track 11 Filename F:抢眯忧嗜 Clouds - Cloudy Days By Ping (2013)11. Lee Arvil - Luka.wav Peak level 98.7 %
Extraction speed 2.2 X
Track quality 99.9 %
Test CRC C71B5BF9
Copy CRC C71B5BF9
Track not present in AccurateRip database
Copy OK

Track 12 Filename F:抢眯忧嗜 Clouds - Cloudy Days By Ping (2013)12. Ane Braun - Big In Japan.wav Peak level 98.7 %
Extraction speed 2.1 X
Track quality 99.9 %
Test CRC 018FAA56
Copy CRC 018FAA56
Track not present in AccurateRip database
Copy OK

Track 13 Filename F:抢眯忧嗜 Clouds - Cloudy Days By Ping (2013)13. Sister Kat - I Will Survave.wav Peak level 92.6 %
Extraction speed 3.2 X
Track quality 100.0 %
Test CRC 174A24BF
Copy CRC 174A24BF
Track not present in AccurateRip database
Copy OK

Track 14 Filename F:抢眯忧嗜 Clouds - Cloudy Days By Ping (2013)14. Berk & The Virtual Band - Personal Jesus.wav Peak level 93.2 %
Extraction speed 3.4 X
Track quality 100.0 %
Test CRC 0A44D468
Copy CRC 0A44D468
Track not present in AccurateRip database
Copy OK

Track 15 Filename F:抢眯忧嗜 Clouds - Cloudy Days By Ping (2013)15. Albane Alcalay - Give Me The Night.wav Peak level 90.8 %
Extraction speed 3.6 X
Track quality 100.0 %
Test CRC B876B303
Copy CRC B876B303
Track not present in AccurateRip database
Copy OK

Track 16 Filename F:抢眯忧嗜 Clouds - Cloudy Days By Ping (2013)16. Bb Valentine - Somebody Else's Guy.wav Peak level 87.3 %
Extraction speed 3.7 X
Track quality 100.0 %
Test CRC 2633E743
Copy CRC 2633E743
Track not present in AccurateRip database
Copy OK

Track 17 Filename F:抢眯忧嗜 Clouds - Cloudy Days By Ping (2013)17. World Mestizo Ensemble Presents Acoustic - Self Control.wav Peak level 80.6 %
Extraction speed 2.5 X
Track quality 99.9 %
Test CRC 06B37A17
Copy CRC 06B37A17
Track not present in AccurateRip database
Copy OK

Track 18 Filename F:抢眯忧嗜 Clouds - Cloudy Days By Ping (2013)18. Veronica M - That's The Way (I Like It).wav Peak level 90.5 %
Extraction speed 3.7 X
Track quality 100.0 %
Test CRC 245650B3
Copy CRC 245650B3
Track not present in AccurateRip database
Copy OK

Track 19 Filename F:抢眯忧嗜 Clouds - Cloudy Days By Ping (2013)19. Liza Everson - Don't Look Any Further.wav Peak level 88.4 %
Extraction speed 4.0 X
Track quality 100.0 %
Test CRC A32AB786
Copy CRC A32AB786
Track not present in AccurateRip database
Copy OK

None of the tracks are present in the AccurateRip database

No errors occurred

End of status report

---- CUETools DB Plugin V2.1.3

[CTDB TOCID: qx439pmgrSR7pzd8EXNhY_Y4ZLM-] disk not present in database, Submit result: qx439pmgrSR7pzd8EXNhY_Y4ZLM- has been uploaded

==== Log checksum 953A38F32EE94BC4B9B7263DB9675BF51757A2EA613BC41333D2AFFEC5AAE414 ====

[CUETools log; Date: 9/11/2014 12:08:34 AM; Version: 2.1.4]
[CTDB TOCID: qx439pmgrSR7pzd8EXNhY_Y4ZLM-] found.
Track | CTDB Status
1 | (1/1) Accurately ripped
2 | (1/1) Accurately ripped
3 | (1/1) Accurately ripped
4 | (1/1) Accurately ripped
5 | (1/1) Accurately ripped
6 | (1/1) Accurately ripped
7 | (1/1) Accurately ripped
8 | (1/1) Accurately ripped
9 | (1/1) Accurately ripped
10 | (1/1) Accurately ripped
11 | (1/1) Accurately ripped
12 | (1/1) Accurately ripped
13 | (1/1) Accurately ripped
14 | (1/1) Accurately ripped
15 | (1/1) Accurately ripped
16 | (1/1) Accurately ripped
17 | (1/1) Accurately ripped
18 | (1/1) Accurately ripped
19 | (1/1) Accurately ripped
[AccurateRip ID: 002f96cb-02975b3c-39108613] found.
Track [ CRC | V2 ] Status
01 [4eee2a42|b794d268] (0+1/1) Accurately ripped
02 [c55f0f8c|3052163f] (0+1/1) Accurately ripped
03 [361786ae|30b3d3cd] (0+1/1) Accurately ripped
04 [ffc6605c|35a87c58] (0+1/1) Accurately ripped
05 [d9faf561|0d5365db] (0+1/1) Accurately ripped
06 [027fb8b1|3e214a59] (0+1/1) Accurately ripped
07 [80ef205d|97d6bd37] (0+1/1) Accurately ripped
08 38760e4|7d4b09d8 (0+1/1) Accurately ripped
09 [5a4c88d3|6e64acdd] (0+1/1) Accurately ripped
10 [7ee8d01a|88bc9177] (0+1/1) Accurately ripped
11 [6bec79d6|5c539487] (0+1/1) Accurately ripped
12 [35248a73|1aa45c25] (0+1/1) Accurately ripped
13 [2afe0df9|37d4f330] (0+1/1) Accurately ripped
14 [538f82a5|743b8e41] (0+1/1) Accurately ripped
15 [a2784b10|5bf429e6] (0+1/1) Accurately ripped
16 [f9b0c0f0|985a9edb] (0+1/1) Accurately ripped
17 [ae022fc8|599e4ceb] (0+1/1) Accurately ripped
18 [f11eba0a|467e7421] (0+1/1) Accurately ripped
19 [9e1b6220|31a6d768] (0+1/1) Accurately ripped

Track Peak [ CRC32 ] [W/O NULL] [ LOG ]
-- 98.7 93612F5 [2E2E7954]
01 97.7 [0A0B41A4] [2EBEE0B0] CRC32
02 92.2 [137C50F4] [1502A267] CRC32
03 96.6 [695BB73E] [3AF007A0] CRC32
04 96.6 [ED78E58B] [8669790F] CRC32
05 93.5 [7BF2C98D] [8B87C08A] CRC32
06 93.2 [11B2EED0] 404245A CRC32
07 78.4 [F22AAEC8] B7364E7 CRC32
08 97.7 [F2540752] [42011977] CRC32
09 88.1 [485D9465] [F44688C7] CRC32
10 97.7 [1601F917] [752610A3] CRC32
11 98.7 [C71B5BF9] [566284C6] CRC32
12 98.7 [018FAA56] [8FD43709] CRC32
13 92.6 [174A24BF] [7EFBE233] CRC32
14 93.2 [0A44D468] DE6559D CRC32
15 90.8 876B303 6196CA2 CRC32
16 87.3 [2633E743] [6F92E8C7] CRC32
17 80.6 [06B37A17] [96E8D1B7] CRC32
18 90.5 [245650B3] [8EFF475F] CRC32
19 88.4 [A32AB786] [6C5050EC] CRC32

Released Date: 2013
Format: CD, Compilation
Length: 1:10:30

http://i68.fastpic.ru/big/2014/0912/e1/078f1166288888d2599e06b7fdbbe1e1.jpg

http://i64.fastpic.ru/big/2014/0912/17/79db252e429cd5a05d2157faab1eb317.jpg


DOWNLOAD
(Premium Recommended)


All above links are interchangable. No password
Direct Download

Tags: Cloudy, Clouds, Artists, Various
Cisco E Learning For Icnd V Torrent | Talugu Sex Phot Os | Prono Animal | Bokep Sex Hot Flipin | Chapter Review Questions Answers For Java Rk Rszghms Rk Rslqhymd | Emeditor Key | Mathcad Prime Crack Only | Public Notes Normal Version Login Rsadar Rk Rsfln Gcjtjkcz | Indiski Film Meld | Escapists For Free No Download | Hentai Mp Full Download | Public Notes Normal Version Login Rsadayngwfsmex Rk Rsm | Link Download Film Porno Indo | Czech Hunt Vip Boy Rk Rsjuc Rk Rshvhc | Downnload Keygen Serial Keyshot | Ok Sweetheart Torrent | Candydolls Maya | Naturismo Kids Sex Videos | Resident Evil Revelations Jill Mod Ps Download Rk

Various Artists Clouds Cloudy Days 2013 Download via Hotfile Rapidshare Fileserve Megaupload & FileSonic, Various Artists Clouds Cloudy Days 2013 free torrent downloads included crack, serial, keygen.


Add comments

Your Name:
Your E-Mail:

Security Code:
Include security image CAPCHA.
update code
Insert Code: